<svg xmlns="http://www.w3.org/2000/svg"><defs><font id="Ionicons" horiz-adv-x="416"><font-face font-family="Ionicons" font-weight="400" units-per-em="512" panose-1="2 0 5 3 0 0 0 0 0 0" ascent="448" descent="-64" bbox="-0.75 -64 512.487 448" underline-thickness="25.6" underline-position="-51.2" unicode-range="U+F100-F4CD"/><glyph glyph-name="ion-ios-add-circle-outline" unicode="" d="M298 208c9 0 16-7 16-16s-7-16-16-16h-74v-74c0-9-7-16-16-16s-16 6-16 16v74h-74s-16 6-16 16 7 16 16 16h74v74c0 9 7 16 16 16s16-7 16-16v-74h74zm-90 164c-48 0-93-19-127-53s-53-79-53-127S47 99 81 65s79-53 127-53 93 19 127 53 53 79 53 127-19 93-53 127-79 53-127 53zm0 28c115 0 208-93 208-208S323-16 208-16 0 77 0 192s93 208 208 208z"/><glyph glyph-name="ion-ios-add-circle" unicode="" d="M208 400c115 0 208-93 208-208S323-16 208-16 0 77 0 192s93 208 208 208zm90-224c9 0 16 7 16 16s-7 16-16 16h-74v74c0 9-7 16-16 16s-16-7-16-16v-74h-74c-9 0-16-7-16-16 0-4 1-8 4-11s8-5 12-5h74v-74c0-4 2-9 5-12s7-4 11-4c9 0 16 7 16 16v74h74z"/><glyph glyph-name="ion-ios-add" unicode="" horiz-adv-x="257" d="M241 208c9 0 16-7 16-16s-7-16-16-16h-97V80c0-9-7-16-16-16-4 0-8 1-11 4s-5 8-5 12v96H16c-4 0-8 2-11 5s-5 7-5 11c0 9 7 16 16 16h96v96c0 9 7 16 16 16s16-7 16-16v-96h97z"/><glyph glyph-name="ion-ios-airplane" unicode="" horiz-adv-x="448" d="M376 224c44 0 72-14 72-32s-28-32-72-32h-18l-65 2c-1 0-2 0-2-1L194 15c-3-5-8-7-14-7h-23c-6 0-8 6-6 11l50 143c0 1-1 2-2 2l-121 3c-2 0-5-1-7-3l-38-46c-3-4-7-6-12-6H4c-3 0-5 3-4 6l20 68c2 4 2 8 0 12L0 267c-1 3 1 5 4 5h17c5 0 9-2 12-6l37-45c2-2 4-3 7-3l122 2c1 0 2 1 2 2l-50 143c-2 5 0 11 6 11h23c5 0 11-2 14-7l97-146c0-1 1-1 2-1l65 2h18z"/><glyph glyph-name="ion-ios-alarm" unicode="" horiz-adv-x="384" d="M317 384c38-2 67-33 67-69 0-18-7-26-16-37-1-1-3-2-5-2h-1c-2 0-3 1-4 2l-90 80c-2 1-2 4-2 6s0 4 2 5c13 10 29 15 45 15h4zM0 315c0 36 29 67 67 69h4c16 0 32-5 45-15 2-1 2-3 2-5s0-5-2-6l-90-80c-1-1-2-2-4-2h-1c-2 0-4 1-5 2-9 11-16 19-16 37zM326 62l35-36c6-6 5-15-1-21-3-3-8-5-12-5s-8 2-11 5l-34 35C273 15 234 0 192 0S111 15 81 40L46 5c-3-3-7-5-11-5s-8 2-11 5c-6 6-7 15-1 21l35 36c-26 31-42 70-42 114 0 97 79 176 176 176s176-79 176-176c0-44-16-83-42-114zM206 174v116c0 8-6 14-14 14s-14-6-14-14V188h-68c-8 0-14-6-14-14s6-14 14-14h82c8 0 14 6 14 14z"/><glyph glyph-name="ion-ios-albums" unicode="" horiz-adv-x="480" d="M445 287c19 0 35-16 35-35V20c0-19-16-35-35-35H35C16-15 0 1 0 20v232c0 19 16 35 35 35h410zm-27 28H62c-8 0-14 6-14 14s6 14 14 14h356c8 0 14-6 14-14s-6-14-14-14zm-31 56H93c-7 0-13 6-13 13v2c0 7 6 13 13 13h294c7 0 13-6 13-13v-2c0-7-6-13-13-13z"/><glyph glyph-name="ion-ios-alert" unicode="" d="M208 400c115 0 208-93 208-208S323-16 208-16 0 77 0 192s93 208 208 208zm17-110c0 10-7 18-17 18s-17-8-17-18l3-115c0-8 6-15 14-15s14 7 14 15zM208 94c11 0 19 8 19 18s-8 19-19 19-19-9-19-19 8-18 19-18z"/><glyph glyph-name="ion-ios-american-football" unicode="" d="M331 315c40-40 62-96 73-148L233-4C181 7 125 29 85 69s-62 95-73 148l171 171c52-11 108-33 148-73zm-35-155c5 5 5 13 1 18-3 3-7 4-11 4-3 0-6-2-8-4l-19-19-16 16 20 19c3 3 5 8 3 13 0 1-1 1-1 2-3 5-7 8-13 7-3 0-6-2-8-4l-19-19-16 16 20 19c3 3 5 8 3 13-1 2-1 5-3 6-3 3-8 4-12 3-3 0-5-2-7-4l-19-19-16 16 20 19c3 3 5 8 3 13 0 1-1 1-1 2-3 5-7 8-13 7-3 0-6-2-8-4l-19-19-15 15c-5 5-13 5-18 0s-5-13 0-18l15-15-19-19c-3-3-6-8-4-13 0-1 1-1 1-2 3-5 8-8 14-7 3 0 5 2 7 4l20 19 15-16-19-19c-3-3-6-8-4-13 0-1 1-1 1-2 3-5 8-8 14-7 3 0 5 2 7 4l19 19 16-16-20-19c-3-3-5-8-3-13 0-1 1-1 1-2 3-5 7-8 13-7 3 0 6 2 8 4l19 19 16-16-20-19c-3-3-4-8-3-13 1-2 1-3 3-5 3-3 8-5 12-4 3 0 5 2 7 4l19 19 15-15c5-5 13-5 18 0s5 13 0 18l-15 15zm51-176c-24 0-54 1-85 6l148 148c10-66 5-125 3-144 0-4-3-7-7-7-10-1-31-3-59-3zM69 400c24 0 54-1 85-6L6 246c-10 66-5 125-3 144 0 4 3 7 7 7 10 1 31 3 59 3z"/><glyph glyph-name="ion-ios-analytics" unicode="" d="M208 400c115 0 208-93 208-208S323-16 208-16 0 77 0 192s93 208 208 208zM28 192c0-12 1-23 3-34 6-5 20-16 37-13 12 2 28 25 38 41 4 6 8 12 11 16 17 21 34 23 45 21 24-3 43-27 52-49 7-18 20-28 33-29 15-1 31 10 42 29 1 2 3 5 4 7 9 17 23 43 51 43 20 0 35-14 44-24-2 45-21 87-53 119-34 34-79 53-127 53s-93-19-127-53-53-79-53-127z"/><glyph glyph-name="ion-ios-aperture" unicode="" d="M202 77h179c-25-37-61-66-103-81l-22 22-55 55c-1 1-1 4 1 4zm-83 36c0 2 2 3 3 2L249-12c-13-3-27-4-41-4-32 0-62 7-89 20v109zm89 287c32 0 63-7 90-20V271c0-2-3-3-4-2L168 396c13 3 26 4 40 4zM20 281h110c2 0 2-2 1-3L4 151c-3 13-4 27-4 41 0 32 7 62 20 89zm119 107l77-77c1-1 1-4-1-4H35c25 37 61 66 104 81zm-20-161c0 1 0 2 1 3l50 50c1 1 2 1 3 1h71c1 0 1 0 2-1l50-50c1-1 2-2 2-3v-70c0-1-1-2-2-3l-50-50c-1-1-1-1-2-1h-71c-1 0-2 0-3 1l-50 50c-1 1-1 2-1 3v70zm293 5c3-13 4-26 4-40 0-32-7-62-20-89H287c-2 0-2 2-1 3zm-88 133c37-25 65-61 80-104l-77-77c-1-1-3 0-3 2v179zM12 122l78 78c1 1 3 0 3-2V19C56 44 27 79 12 122z"/><glyph glyph-name="ion-ios-apps" unicode="" horiz-adv-x="384" d="M371 310c18-8 18-21 0-29l-148-67c-17-8-45-8-62 0L13 281c-18 8-18 21 0 29l150 68c16 7 43 7 59 0zM161 73c17-8 45-8 62 0l100 45c4 2 9 2 13 0l35-16c18-8 18-21 0-29L223 6c-17-8-45-8-62 0L13 73c-18 8-18 21 0 29l35 16c4 2 10 2 14 0zm210 133c18-8 18-21 0-29l-148-67c-17-8-45-8-62 0L13 177c-18 8-18 21 0 29l32 15c4 2 9 2 13 0l108-49c15-5 37-5 52 0l108 49c4 2 9 2 13 0z"/><glyph glyph-name="ion-ios-appstore" unicode="" d="M208 400c115 0 208-93 208-208S323-16 208-16 0 77 0 192s93 208 208 208zm-79-297l18 30c-2 6-10 12-20 12h-2c-3 0-5-2-7-4l-14-23c-4-7-2-16 5-20 2-1 6-2 8-2 5 0 9 2 12 7zm120 47s1 1 1 4c0 5-1 9-4 14l-1 1c-3 6-11 9-18 9h-54l37 62 16 28 18 30c4 7 2 16-5 20s-16 2-20-5l-9-16-10 16c-4 7-13 9-20 5s-8-13-4-20l17-30-53-90H95c-8 0-15-6-15-14s6-15 14-15h62zm73-1c8 0 14 7 14 15s-7 14-15 14h-41l-49 82s-4-1-8-9c-6-11-5-25 1-36l22-37 17-29 27-46c3-4 7-7 12-7 3 0 6 1 8 2 7 4 9 13 5 20l-19 31h26z"/><glyph glyph-name="ion-ios-archive" unicode="" d="M412 328H4c-2 0-4 2-4 4v20c0 18 14 32 32 32h352c18 0 32-14 32-32v-20c0-2-2-4-4-4zm-20-26c4 0 8-4 8-8V32c0-18-14-32-32-32H48C30 0 16 14 16 32v262c0 4 4 8 8 8h368zM258 160c8 0 15 8 14 16-1 7-7 12-14 12H158c-8 0-15-8-14-16 1-7 7-12 14-12h100z"/><glyph glyph-name="ion-ios-arrow-back" unicode="" horiz-adv-x="192" d="M58 192L185 65c9-9 9-25 0-34-5-5-11-7-17-7s-12 2-17 7L6 176c-9 9-8 24 1 33l144 144c9 9 25 9 34 0s9-25 0-34z"/><glyph glyph-name="ion-ios-arrow-down" unicode="" horiz-adv-x="336" d="M168 154l127 127c9 9 25 9 34 0s9-25 0-34L185 103c-9-9-24-10-33-1L7 247c-5 5-7 11-7 17s2 12 7 17c9 9 25 9 34 0z"/><glyph glyph-name="ion-ios-arrow-dropdown-circle" unicode="" d="M0 192c0 115 93 208 208 208s208-93 208-208S323-16 208-16 0 77 0 192zm289 43l-81-79-81 81c-8 8-19 8-27 0s-8-19 0-27l95-95c7-7 19-8 27-1l94 94c4 4 6 9 6 14s-2 9-6 13c-8 8-19 8-27 0z"/><glyph glyph-name="ion-ios-arrow-dropdown" unicode="" d="M100 237c8 8 19 8 27 0l81-81 81 79c8 8 19 8 27 0 4-4 6-8 6-13s-2-10-6-14l-94-94c-8-7-20-6-27 1l-95 95c-8 8-8 19 0 27zM0 192c0 115 93 208 208 208s208-93 208-208S323-16 208-16 0 77 0 192zm332 124c-33 33-77 52-124 52s-91-19-124-52-52-77-52-124 19-91 52-124 77-52 124-52 91 19 124 52 52 77 52 124-19 91-52 124z"/><glyph glyph-name="ion-ios-arrow-dropleft-circle" unicode="" d="M208 400c115 0 208-93 208-208S323-16 208-16 0 77 0 192s93 208 208 208zm43-289l-79 81 81 81c8 8 8 19 0 27s-19 8-27 0l-95-95c-7-7-8-19-1-27l94-94c4-4 9-6 14-6s9 2 13 6c8 8 8 19 0 27z"/><glyph glyph-name="ion-ios-arrow-dropleft" unicode="" d="M253 300c8-8 8-19 0-27l-81-81 79-81c8-8 8-19 0-27-4-4-8-6-13-6s-10 2-14 6l-94 94c-7 8-6 20 1 27l95 95c8 8 19 8 27 0zm-45 100c115 0 208-93 208-208S323-16 208-16 0 77 0 192s93 208 208 208zM332 68c33 33 52 77 52 124s-19 91-52 124-77 52-124 52-91-19-124-52-52-77-52-124 19-91 52-124 77-52 124-52 91 19 124 52z"/><glyph glyph-name="ion-ios-arrow-dropright-circle" unicode="" d="M0 192c0 115 93 208 208 208s208-93 208-208S323-16 208-16 0 77 0 192zm244 0l-79-81c-8-8-8-19 0-27 4-4 8-6 13-6s10 2 14 6l94 94c7 8 6 20-1 27l-95 95c-8 8-19 8-27 0s-8-19 0-27z"/><glyph glyph-name="ion-ios-arrow-dropright" unicode="" d="M163 300c8 8 19 8 27 0l95-95c7-7 8-19 1-27l-94-94c-4-4-9-6-14-6s-9 2-13 6c-8 8-8 19 0 27l80 81-82 81c-8 7-8 19 0 27zM0 192c0 115 93 208 208 208s208-93 208-208S323-16 208-16 0 77 0 192zm32 0c0-47 19-91 52-124s77-52 124-52 91 19 124 52 52 77 52 124-19 91-52 124-77 52-124 52-91-19-124-52-52-77-52-124z"/><glyph glyph-name="ion-ios-arrow-dropup-circle" unicode="" d="M208-16C93-16 0 77 0 192s93 208 208 208 208-93 208-208S323-16 208-16zm0 244l81-79c8-8 19-8 27 0 4 4 6 8 6 13s-2 10-6 14l-94 94c-8 7-20 6-27-1l-95-95c-8-8-8-19 0-27s19-8 27 0z"/><glyph glyph-name="ion-ios-arrow-dropup" unicode="" d="M100 147c-8 8-8 19 0 27l95 95c7 7 19 8 27 1l94-94c4-4 6-9 6-14s-2-9-6-13c-8-8-19-8-27 0l-81 79-81-81c-8-8-19-8-27 0zM208-16C93-16 0 77 0 192s93 208 208 208 208-93 208-208S323-16 208-16zm0 32c47 0 91 19 124 52s52 77 52 124-19 91-52 124-77 52-124 52-91-19-124-52-52-77-52-124 19-91 52-124 77-52 124-52z"/><glyph glyph-name="ion-ios-arrow-forward" unicode="" horiz-adv-x="192" d="M134 192L7 319c-9 9-9 25 0 34s25 9 34 0l144-144c9-9 10-24 1-33L41 31c-5-5-11-7-17-7s-12 2-17 7c-9 9-9 25 0 34z"/><glyph glyph-name="ion-ios-arrow-round-back" unicode="" horiz-adv-x="288" d="M104 284c5-5 5-13 0-18l-60-61h231c7 0 13-6 13-13s-6-13-13-13H44l60-61c5-5 5-13 0-18s-13-5-18 0L4 183c-1 1-2 2-3 4s-1 3-1 5c0 3 2 7 4 9l82 83c5 5 13 5 18 0z"/><glyph glyph-name="ion-ios-arrow-round-down" unicode="" horiz-adv-x="192" d="M188 152c5-5 5-13 0-18l-83-82c-2-2-6-4-9-4-2 0-3 0-5 1s-3 2-4 3L4 134c-5 5-5 13 0 18s13 6 18 1l61-61v231c0 7 6 13 13 13s13-6 13-13V92l61 60c5 5 13 5 18 0z"/><glyph glyph-name="ion-ios-arrow-round-forward" unicode="" horiz-adv-x="288" d="M184 284c5 5 13 5 18 0l82-83c2-2 4-6 4-9 0-2 0-3-1-5s-2-3-3-4l-82-83c-5-5-13-5-18 0s-6 13-1 18l61 61H13c-7 0-13 6-13 13s6 13 13 13h231l-60 61c-5 5-5 13 0 18z"/><glyph glyph-name="ion-ios-arrow-round-up" unicode="" horiz-adv-x="192" d="M188 232c-5-5-13-5-18 0l-61 60V61c0-7-6-13-13-13s-13 6-13 13v231l-61-61c-5-5-13-4-18 1s-5 13 0 18l83 82c1 1 2 2 4 3s3 1 5 1c3 0 7-2 9-4l83-82c5-5 5-13 0-18z"/><glyph glyph-name="ion-ios-arrow-up" unicode="" horiz-adv-x="336" d="M168 230L41 103c-9-9-25-9-34 0-5 5-7 11-7 17s2 12 7 17l145 145c9 9 24 8 33-1l144-144c9-9 9-25 0-34s-25-9-34 0z"/><glyph glyph-name="ion-ios-at" unicode="" horiz-adv-x="384" d="M384 214c0-74-35-121-90-121-28 0-49 15-53 37h-4c-10-23-30-36-57-36-49 0-82 40-82 98 0 56 33 94 81 94 25 0 46-12 55-32h4v28h39V152c0-16 9-26 25-26 28 0 46 34 46 86 0 83-63 139-155 139-91 0-156-66-156-160 0-96 64-158 164-158 20 0 40 2 55 5 10 2 18-6 18-16 0-7-5-13-12-15-18-4-39-7-62-7C78 0 0 75 0 192c0 114 79 192 195 192 111 0 189-69 189-170zm-243-23c0-37 18-60 46-60 30 0 49 24 49 60s-20 59-49 59-46-22-46-59z"/><glyph glyph-name="ion-ios-attach" unicode="" horiz-adv-x="231" d="M216 287c9 0 15-7 15-16V77c0-14-3-28-9-42-6-13-14-25-24-35-21-20-48-32-76-32h-13C81-32 54-21 33 0 13 20 0 49 0 78v251c0 24 9 45 26 61s38 26 62 26 46-10 62-26c17-16 26-38 26-61V94c0-18-7-33-18-44s-26-18-42-18c-34 0-60 26-60 62v134c0 9 7 16 16 16s15-7 15-16V94c0-19 15-32 29-32 15 0 29 15 29 32v235c0 15-7 29-17 39s-25 16-40 16-30-6-41-16c-11-11-17-24-17-39V78c0-20 9-39 24-55S89-2 109-2h13c20 0 42 9 56 24s22 35 22 55v194c0 9 7 16 16 16z"/><glyph glyph-name="ion-ios-backspace" unicode="" d="M347 352c38 0 69-31 69-69V103c0-38-31-71-69-71H182c-45 0-64 26-102 64S8 172 8 172c-5 6-8 13-8 21s3 15 8 21c0 0 43 45 72 74s55 64 102 64h165zm-18-213l-52 53 52 53c6 6 6 16 0 22s-16 6-22 0l-53-52-53 52c-6 6-15 7-22 0s-6-16 0-22 52-53 52-53-45-46-52-53-6-16 0-22 16-6 22 0l53 52 53-52c6-6 16-6 22 0s6 16 0 22z"/><glyph glyph-name="ion-ios-barcode" unicode="" d="M74 60c4 0 7-2 10-5s4-6 4-10c0-8-7-13-15-13H17C7 32 0 38 0 48v288c0 10 8 16 18 16h54c4 0 9-1 12-4s4-6 4-10c0-8-7-14-15-14H33c-2 0-4-2-4-4V64c0-2 2-4 4-4h41zm325 292c10 0 17-6 17-16V48c0-10-7-16-17-16h-57c-4 0-7 1-10 4s-4 6-4 10c0 8 7 14 15 14h40c2 0 4 2 4 4v256c0 2-2 4-4 4h-41c-5 0-9 3-12 8 0 1-1 1-1 2-3 10 4 18 14 18h56zM74 272c8 0 14-6 14-14V126c0-8-6-14-14-14s-14 6-14 14v132c0 8 6 14 14 14zm268-160c-8 0-14 6-14 14v132c0 8 6 14 14 14s14-6 14-14V126c0-8-6-14-14-14zm-64 192c8 0 14-6 14-14V94c0-8-6-14-14-14s-14 6-14 14v196c0 8 6 14 14 14zm-140 0c8 0 14-6 14-14V94c0-8-6-14-14-14s-14 6-14 14v196c0 8 6 14 14 14zm70-16c8 0 14-6 14-14V110c0-8-6-14-14-14s-14 6-14 14v164c0 8 6 14 14 14z"/><glyph glyph-name="ion-ios-baseball" unicode="" d="M208 374c-2-1-5 1-5 3-1 8-2 15-3 23h8c115 0 208-93 208-208v-8c-7 1-15 2-22 3-2 0-4 3-3 5l3 9c2 5-1 9-6 11s-9 0-11-5l-4-11c-1-2-3-4-5-3-7 2-15 5-22 8-4 2-8 3-12 5-2 1-3 4-2 6l6 8c3 4 2 10-2 13h-1c-4 3-9 1-12-3l-7-10c-1-2-3-2-5-1-12 7-23 16-33 25-2 2-2 3 0 5l8 8c4 3 4 8 0 12l-1 1c-3 4-8 4-12 0l-8-8c-2-2-4-2-6 0-9 10-16 21-23 32-1 2-1 4 1 5l10 7c4 3 6 8 3 12v1c-3 4-9 5-13 2l-8-6c-2-1-5 0-6 2-2 4-4 9-6 14-3 7-5 13-7 20-1 2 0 4 2 5l12 4c5 2 7 6 5 11s-6 8-11 6zm2-373c1-5 2-12 2-17h-4C93-16 0 77 0 192v4c6-1 12-1 18-2 2 0 4-3 3-5l-4-13c-2-5 1-9 6-11s9 1 11 6l5 14c1 2 3 4 5 3 8-2 15-5 22-8 4-2 9-4 13-6 2-1 3-4 2-6l-8-11c-3-4-1-9 3-12v-1c4-3 9-1 12 3l9 13c1 2 3 2 5 1 11-7 22-15 32-24 2-2 3-3 1-5l-10-10c-4-3-4-9 0-13 3-4 9-4 13 0l9 10c2 2 4 1 6-1 9-10 18-21 25-33 1-2 1-4-1-5l-13-9c-4-3-6-8-3-12h1c3-4 8-6 12-3l11 8c2 1 5 0 6-2 2-4 3-8 5-12 3-8 6-15 8-23 1-2-1-4-3-5l-13-4c-5-2-8-7-6-12s6-8 11-6l12 4c2 1 5-1 5-3zm173 166c1 2 3 3 5 3 9-2 17-3 26-4C402 71 326-5 230-15v1c-1 7-2 15-3 22 0 2 1 3 3 4l16 5c5 2 7 6 5 11v1c-2 5-6 7-11 5l-14-4c-2-1-4 1-5 3-4 14-9 27-15 40-1 2-1 4 1 5l13 9c4 3 5 8 2 12v1c-3 4-9 5-13 2l-10-7c-2-1-5-1-6 1-8 12-17 25-27 36-2 2-2 3 0 5l10 11c4 3 4 8 0 12-3 4-9 4-13 0l-10-10c-2-2-3-1-5 0-11 10-23 18-35 26-2 1-2 4-1 6l7 10c3 4 1 10-3 13s-9 1-12-3l-8-12c-1-2-4-2-6-1-13 7-26 12-40 16-2 1-4 3-3 5l4 13c2 5 0 9-5 11h-1c-5 2-9-1-11-6l-5-14c-1-2-2-3-4-3-7 1-15 2-23 3H1c10 96 86 172 181 184 1-9 2-19 4-28 0-2-1-3-3-4l-17-6c-5-2-8-6-6-11s6-8 11-6l16 5c2 1 4-1 5-3 4-14 10-26 16-39 1-2 1-5-1-6l-15-10c-4-3-6-8-3-12h1c3-4 8-6 12-3l13 9c2 1 5 1 6-1 8-12 16-23 26-34 2-2 2-3 0-5l-13-13c-4-3-4-9 0-13 3-4 9-4 13 0l13 13c2 2 3 1 5 0 11-10 23-19 35-27 2-1 2-3 1-5l-9-14c-3-4-1-9 3-12v-1c4-3 9-1 12 3l11 15c1 2 3 3 5 2 13-6 25-12 39-16 2-1 4-3 3-5l-5-17c-2-5 1-9 6-11s9 1 11 6z"/><glyph glyph-name="ion-ios-basket" unicode="" horiz-adv-x="448" d="M356 74v76h67l-18-76h-49zm0-74v55h45l-6-25c-5-17-20-30-39-30zM233 0v56h104V0H233zM43 74l-17 76h66V74H43zm68 94v88h104v-88H111zm122 0v88h104v-88H233zM54 30l-7 26h45V0C73 0 59 13 54 30zm57-30v56h104V0H111zm122 74v76h104V74H233zm-122 0v76h104V74H111zm321 182c10 0 18-10 16-20l-20-68h-72v174c0 8-6 14-14 14H106c-8 0-14-6-14-14V168H20L0 236c-2 10 6 20 16 20h48v96c0 18 14 32 32 32h256c18 0 32-14 32-32v-96h48z"/><glyph glyph-name="ion-ios-basketball" unicode="" d="M171 142c-22 23-48 42-77 56s-60 22-92 24c5 33 18 64 36 90 64-28 122-68 172-118 3-3 5-6 8-9l-6-6c-13-13-27-25-41-37zm107 120c-21 21-37 46-49 73-9 21-15 43-17 65 45-1 87-16 121-42-15-34-32-67-53-97-1 0-2 1-2 1zm73-49c-18 8-36 19-52 31 21 30 40 62 55 96 37-37 61-88 62-144-22 2-44 8-65 17zm-205-83c1-1 2-3 4-4-33-24-68-46-105-63C17 98 0 143 0 192v4c25-2 50-7 73-17 27-12 52-28 73-49zm90 74c-26 27-56 52-86 74-30 21-62 40-95 55 33 36 79 61 131 66 6-61 35-117 79-159-9-12-19-25-29-36zm17-19c11 12 21 24 31 37 38-29 83-47 131-52-5-52-30-97-66-131-24 53-57 102-96 146zm-66-63c17 14 34 28 49 44 38-43 69-91 92-144-26-18-57-31-90-36-4 49-21 96-51 136zm-20-16c11-15 21-31 28-49 10-23 15-48 17-73h-4C152-16 101 7 63 43c37 17 72 39 104 63z"/><glyph glyph-name="ion-ios-battery-charging" unicode="" horiz-adv-x="480" d="M380 304c26 0 48-22 48-48V128c0-26-22-48-48-48H48c-26 0-48 22-48 48v128c0 26 22 48 48 48h332zm20-176v128c0 11-9 20-20 20H48c-11 0-20-9-20-20V128c0-11 9-20 20-20h332c11 0 20 9 20 20zm48 115c16 0 32-27 32-51s-16-51-32-51v102zm-80 13c7 0 12-5 12-12V140c0-7-5-12-12-12H60c-7 0-12 5-12 12v104c0 7 5 12 12 12h308zM203 140l45 61h-27l8 43-45-61h27z"/><glyph glyph-name="ion-ios-battery-dead" unicode="" horiz-adv-x="480" d="M380 304c26 0 48-22 48-48V128c0-26-22-48-48-48H48c-26 0-48 22-48 48v128c0 26 22 48 48 48h332zm20-176v128c0 11-9 20-20 20H48c-11 0-20-9-20-20V128c0-11 9-20 20-20h332c11 0 20 9 20 20zm48 115c16 0 32-27 32-51s-16-51-32-51v102z"/><glyph glyph-name="ion-ios-battery-full" unicode="" horiz-adv-x="480" d="M380 304c26 0 48-22 48-48V128c0-26-22-48-48-48H48c-26 0-48 22-48 48v128c0 26 22 48 48 48h332zm20-176v128c0 11-9 20-20 20H48c-11 0-20-9-20-20V128c0-11 9-20 20-20h332c11 0 20 9 20 20zm48 115c16 0 32-27 32-51s-16-51-32-51v102zm-80 13c7 0 12-5 12-12V140c0-7-5-12-12-12H60c-7 0-12 5-12 12v104c0 7 5 12 12 12h308z"/><glyph glyph-name="ion-ios-beaker" unicode="" horiz-adv-x="384" d="M381 400c2 0 3-1 3-2s-2-4-3-6-12-15-14-33V49c0-35-28-65-63-65H96c-35 0-64 29-64 64v276c0 32-2 32-32 36 0 12 10 40 64 40h317zM48 371c12-13 12-29 12-47v-36h279v74c0 3 1 6 2 10H64c-4 0-10 0-16-1z"/><glyph glyph-name="ion-ios-bed" unicode="" horiz-adv-x="448" d="M426 240c12 0 22-10 22-22V38c0-12-10-22-22-22s-22 10-22 22v6c0 2-2 4-4 4H48c-2 0-4-2-4-4v-6c0-12-10-22-22-22S0 26 0 38v180c0 12 10 22 22 22s22-10 22-22c0-1 1-2 2-2h356c1 0 2 1 2 2 0 12 10 22 22 22zm-374-6c-4 0-8 4-8 8v94c0 18 14 32 32 32h296c18 0 32-14 32-32v-94c0-4-4-8-8-8h-22c-2 0-4 2-4 4v13c0 9-7 16-16 16h-98c-9 0-16-7-16-16v-13c0-2-2-4-4-4h-24c-2 0-4 2-4 4v13c0 9-7 16-16 16H94c-9 0-16-7-16-16v-13c0-2-2-4-4-4H52z"/><glyph glyph-name="ion-ios-beer" unicode="" horiz-adv-x="384" d="M48 286v-96H22c-9 0-17 8-17 17 0 16 11 22 11 35v51c0 19-16 12-16 41v4c0 26 25 43 50 43 10 0 18-1 23-2 6-1 12 1 16 6 9 10 22 17 36 17 9 0 19-2 26-7 6-4 13-2 17 3 10 11 23 18 44 18 24 0 47-16 56-39 2-5 7-9 13-9h1c21 0 38-17 38-38v-22c0-2-3-4-5-2-4 3-8 4-13 4H72c-13 0-24-11-24-24zM322-4c8 0 14-6 14-14s-6-14-14-14H46c-8 0-14 6-14 14S38-4 46-4h276zm14 258c26 0 48-22 48-48v-96c0-26-22-48-48-48h-32c0-12 2-18 5-30 1-6 0-12-5-16-3-3-7-4-11-4H79c-6 0-12 3-15 8-3 4-4 9-3 14 2 12 3 18 3 30v214c0 9 7 16 16 16h208c9 0 16-7 16-16v-24h32zm20-144v96c0 11-9 20-20 20h-32V90h32c11 0 20 9 20 20z"/><glyph glyph-name="ion-ios-bicycle" unicode="" horiz-adv-x="448" d="M93 159c-17 0-34-8-46-20s-19-29-19-46 7-34 19-46 29-19 46-19 34 7 46 19 20 29 20 46-8 35-20 47-29 19-46 19zm0 28c51 0 94-43 94-94S144 0 93 0 0 42 0 93s42 94 93 94zm195 133c-18 0-32 14-32 32s14 32 32 32 32-14 32-32-14-32-32-32zm67-161c-17 0-34-8-46-20s-20-29-20-46 8-34 20-46 29-19 46-19 34 7 46 19 19 29 19 46-7 35-19 47-29 19-46 19zm0 28c51 0 93-43 93-94S406 0 355 0s-94 42-94 93 43 94 94 94zm-19 69c9 0 16-7 16-16s-7-16-16-16h-57s-19 24-38 52l-49-52c18-14 48-25 48-38V96c0-9-7-16-16-16s-16 7-16 16v66s-16 16-62 42c-6 4-18 10-18 27 0 8 3 17 9 23l72 69c6 6 14 9 22 9 11 0 21-7 27-16l30-60h48z"/><glyph glyph-name="ion-ios-bluetooth" unicode="" horiz-adv-x="256" d="M250 115c7-6 7-16 1-23L135-28c-2-2-6-4-9-4-6 0-11 5-11 11v170L30 75c-7-6-19-5-25 2s-5 18 2 24l108 91L6 284c-7 6-8 17-2 24s18 7 25 1l86-73v169c0 6 5 11 11 11 3 0 7-2 9-4l116-121c6-7 6-17-1-23l-88-76zm-99 232c-1 1-3 1-3-1V227c0-2 2-3 3-2l63 53c1 1 1 2 0 3zm-3-309c0-2 2-2 3-1l63 65c1 1 1 2 0 3l-63 53c-1 1-3 0-3-2V38z"/><glyph glyph-name="ion-ios-boat" unicode="" horiz-adv-x="400" d="M296 26s27-24 63-36c2-1 1-4-1-4-23 2-40 6-62 12-22-10-67-14-96-14s-73 5-96 14c-21-6-39-9-62-12-2 0-3 3-1 4 36 12 63 36 63 36 26-9 66-15 96-15s70 6 96 15zm94 159c6-3 10-9 10-16 0-2 0-5-1-7L344 26c-28 0-57 22-57 22-18-9-53-17-79-19h-16c-26 2-61 10-79 19 0 0-29-22-57-22L1 162c-1 2-1 5-1 7 0 7 4 13 10 16l187 85c2 1 4 1 6 0l187-85zm-234-25c7 0 12 10 12 22s-5 22-12 22-12-10-12-22 5-22 12-22zm88 0c7 0 12 10 12 22s-5 22-12 22-12-10-12-22 5-22 12-22zm92 161l18-97c1-3-2-5-5-4l-26 11c-1 0-2 2-2 3l-16 86c-3 11-7 16-16 16H112c-9 0-15-5-17-16l-16-86c0-1-1-3-2-3l-25-11c-3-1-7 1-6 4l18 97c5 26 17 47 40 47h34l2 8c4 14 16 24 31 24h57c15 0 27-10 31-24l2-8h35c22 0 34-20 40-47z"/><glyph glyph-name="ion-ios-body" unicode="" horiz-adv-x="384" d="M144 368c0 27 21 48 48 48s48-21 48-48-21-48-48-48-48 21-48 48zm216-64c13 0 24-11 24-24s-11-24-24-24h-98c-6-1-14-4-18-14-5-12-2-34 1-52l4-21v-1L279-4c2-13-6-26-19-28s-26 7-28 20l-21 120s-6 32-18 32h-1c-12 0-19-32-19-32L152-12c-2-13-15-22-28-20s-21 15-19 28l30 172v1l4 21c3 18 6 40 1 52-4 10-12 13-18 14H24c-13 0-24 11-24 24s11 24 24 24h336z"/><glyph glyph-name="ion-ios-bonfire" unicode="" horiz-adv-x="384" d="M207 97l15-75c1-3 1-5 1-8 0-18-14-30-32-30s-32 12-32 30c0 2 1 5 1 7l15 79c2 7 8 12 16 12s15-7 16-15zm35-4zm83-31c9-8 9-25 0-35-10-10-27-9-35 0-1 1-2 2-3 4l-45 62c-3 5-2 11 2 15 4 5 10 5 16 1l60-43c2-1 3-3 5-4zm-17 51zm63 15c8 0 13-6 13-18 0-9-10-17-18-15l-57 18h-1c-3 2-5 5-4 9s4 6 8 6h59zM75 113zm0 0L17 95c-8-2-17 6-17 15s4 18 12 18h60s7-2 8-6-2-7-5-9zm49-4c5 4 11 3 16-1 4-4 5-10 2-15L97 32c-1-2-2-4-3-5-10-10-25-10-35 0s-10 25 0 35c2 2 3 3 5 4zm171 200c0-30-10-55-51-81-37-24-93-43-109-100 0 0-58 23-48 91s124 100 112 181c24 0 96-33 96-91zm0-121c-16-47-44-60-80-60-15 0-36 12-47 28 12 14 28 24 47 34 9 5 20 10 29 16 21 14 39 28 48 46 5-14 8-49 3-64zM98 276c-6 4-12 16-11 29 2 21 34 36 32 65 14 2 34-6 45-26-5-10-15-20-28-32s-26-21-38-36z"/><glyph glyph-name="ion-ios-book" unicode="" d="M98 384c54 0 100-28 100-82V2c0-2-3-3-4-1-10 34-38 68-82 71-34 2-67-13-93-37-2-2-5-3-7-3H8c-4 0-8 3-8 6v290c0 32 44 56 98 56zm220 0c54 0 98-24 98-56V38c0-3-4-6-8-6h-4c-2 0-5 2-7 3-29 26-60 39-93 37-43-3-72-36-82-70V1c-1-2-4-1-4 1v300c0 54 46 82 100 82z"/><glyph glyph-name="ion-ios-bookmark" unicode="" horiz-adv-x="256" d="M0 368c0 18 14 32 32 32h192c18 0 32-14 32-32V-12c0-3-3-5-6-3L133 77c-3 2-7 2-10 0L6-15c-3-2-6 0-6 3v380z"/><glyph glyph-name="ion-ios-bookmarks" unicode="" horiz-adv-x="432" d="M376 416c30 0 56-25 56-55V71c0-30-25-55-55-55H269c-4 0-8 0-12-1-16-3-27-17-27-33 0-8-8-15-16-14-7 1-12 7-12 14 0 16-12 30-27 33-4 1-8 1-12 1H55C25 16 0 41 0 71v290c0 30 25 55 55 55h106c22 0 41-18 41-41V61c0-8 7-14 15-14s13 6 13 14v314c0 23 19 41 41 41h41V288l23 15 9 6 9-6 23-15v128z"/><glyph glyph-name="ion-ios-bowtie" unicode="" horiz-adv-x="448" d="M259 234c10-17 19-53 17-85-1-17-5-22-5-22s-12-7-36-7h-11c-35 3-40 15-40 15s4 12 8 43 0 58 0 58 7 5 19 7c8 2 17 3 23 3 11 0 20-4 25-12zm-85 5s3-16 2-32v-10c0-3-1-6-1-10 0-5 0-10-1-15l-2-10c-4-21-10-34-10-34S85 48 52 48C24 48 0 116 0 192s26 144 52 144c35 0 100-57 122-97zm222 97c26 0 52-68 52-144S424 48 396 48c-37 0-98 69-106 79 0 0 4 5 5 22v17c0 11-2 23-4 33l-3 11c-3 10-7 18-10 24 0 1-2 4-2 4l1 1c22 40 83 97 119 97z"/><glyph glyph-name="ion-ios-briefcase" unicode="" d="M32 0C14 0 0 14 0 32v192h416V32c0-18-14-32-32-32H32zm352 320c18 0 32-14 32-32v-40H0v40c0 18 14 32 32 32h8v8c0 4 4 8 8 8h32c4 0 8-4 8-8v-8h28v32c0 18 14 32 32 32h120c18 0 32-14 32-32v-32h28v8c0 4 4 8 8 8h32c4 0 8-4 8-8v-8h8zm-112 0v28c0 4-4 8-8 8H152c-4 0-8-4-8-8v-28h128z"/><glyph glyph-name="ion-ios-browsers" unicode="" d="M0 267c0 22 18 40 40 40h243c22 0 40-18 40-40V24c0-22-18-40-40-40H40C18-16 0 2 0 24v243zm93 93c0 22 18 40 40 40h243c22 0 40-18 40-40V117c0-22-18-40-40-40h-28c-2 0-4 2-4 4v199c0 26-22 48-48 48H97c-2 0-4 2-4 4v28z"/><glyph glyph-name="ion-ios-brush" unicode="" horiz-adv-x="448" d="M118 165c52 0 102-42 90-102-11-52-54-71-90-77-6-1-14-2-22-2-32 0-78 8-95 33-1 2-1 5 1 6 20 9 32 26 32 47 0 49 32 95 84 95zm318 223c13-13 17-30 5-45L296 178c-5-6-8-12-8-20v-1c0-5-2-11-6-15l-45-52c-2-2-6-3-8-1-1 1-2 3-2 5 0 50-41 82-87 86-2 0-4 2-5 4s0 5 2 7l53 43c4 4 10 6 16 6 7 0 15 3 20 8l165 145c6 5 13 7 19 7 9 0 18-4 26-12z"/><glyph glyph-name="ion-ios-bug" unicode="" horiz-adv-x="448" d="M343 321c-6-16-17-31-29-43-24-24-56-37-90-37s-67 13-91 37c-12 12-22 27-28 43 29 39 72 63 119 63s90-24 119-63zM90 298c22-45 69-80 122-83V0c-40 2-73 23-100 55l-5-5c-5-4-6-11-4-17 3-8 1-18-5-25C89-2 74-3 64 6s-11 24-2 34l3 3 2 1c4 13 13 26 27 37-15 26-26 56-29 89-2 0-4-1-6-1-6-1-10-4-12-9-4-10-14-17-25-16-12 1-21 10-22 22-1 14 10 26 24 26h3c4 2 8 5 12 6 7 2 14 4 25 4 1 23 6 45 13 65-6 4-11 7-15 11-5 4-9 9-12 14-2 3-3 5-6 7-2 1-4 3-6 5-7 7-7 18-3 27 6 12 21 17 33 10 11-6 15-20 10-31 2-4 4-7 6-9s6-3 6-3zm334-106c14 0 25-12 24-26-1-12-10-21-22-22-11-1-20 6-24 15-2 6-7 9-13 10-2 0-4 1-6 1-3-33-14-64-29-90 14-11 23-23 27-36 0 0 1 0 2-1l3-3c9-10 8-25-2-34s-25-8-34 2c-6 7-8 16-5 24 2 6 1 14-4 18-2 1-3 2-5 4-27-32-60-52-100-54v215c53 3 100 37 122 82 0 0 4 2 6 4 3 3 4 6 6 9-5 11-1 25 10 31 12 6 27 3 33-9s3-27-9-33c-2-1-5-4-6-6-3-5-7-11-12-15-4-4-9-7-15-11 7-20 12-42 13-65 11 0 18-2 25-4 4-1 8-4 12-6h3z"/><glyph glyph-name="ion-ios-build" unicode="" d="M393 317c4 3 9 3 12-1 8-12 12-24 11-34-1-12-6-36-30-60-17-17-45-30-72-30-11 0-22 3-32 8-2 1-6 2-9 2s-7-1-11-5C253 188 74-3 74-3c-8-9-19-13-30-13S21-11 13-3C-4 14-5 42 13 58c0 0 192 181 200 188 7 7 4 15 2 20-19 44 3 83 23 104 21 22 48 29 60 30h2c10 0 22-4 32-11 4-3 5-8 1-12l-45-45c-1-1-1-2-1-3l8-47c0-2 1-3 3-3l47-8c1 0 2 0 3 1zM55 19c5 5 5 14 0 20-6 5-14 5-20 0-5-6-5-14 0-20 6-5 14-5 20 0z"/><glyph glyph-name="ion-ios-bulb" unicode="" horiz-adv-x="296" d="M296 259c0-31-13-56-30-80-11-15-22-18-32-35-14-24-17-41-18-56 0-8-8-15-16-15h-10c-2 0-4 2-4 4v94c0 5 1 11 3 15l22 42c3 7-1 15-9 15-4 0-7-3-9-6l-26-51c-2-4-3-9-3-14V77c0-2-2-4-4-4h-24c-2 0-4 2-4 4v95c0 5-1 10-3 14l-26 51c-2 4-5 6-9 6-8 0-13-8-9-15l21-42c2-4 3-9 3-14V77c0-2-2-4-4-4h-9c-8 0-16 6-16 15-1 15-4 31-19 56-10 17-20 20-31 35-17 24-30 49-30 80 0 78 70 141 148 141s148-63 148-141zM130-16c-8 0-14 6-14 14s6 14 14 14h36c8 0 14-6 14-14s-6-14-14-14h-36zm-20 44c-8 0-14 6-14 14s6 14 14 14h76c8 0 14-6 14-14s-6-14-14-14h-76z"/><glyph glyph-name="ion-ios-bus" unicode="" horiz-adv-x="320" d="M14 31c11-12 24-9 58-9 0-10 1-22-3-22H14c-4 0-5 7-6 29 0 3 4 4 6 2zm292 0c2 2 6 1 6-2-1-22-2-29-6-29h-55s-3 12-3 22c34 0 47-3 58 9zm-18 353c18 0 32-14 32-32V76c0-22-18-40-40-40H40C18 36 0 54 0 76v276c0 18 14 32 32 32h256zM66 72c12 1 21 10 22 22 1 15-11 27-26 26-12-1-21-10-22-22-1-15 11-27 26-26zm76 78c2 0 4 2 4 4v140c0 2-2 4-4 4H44c-9 0-16-7-16-16V166c0-9 7-16 16-16h98zm116-78c12 1 21 10 22 22 1 15-11 27-26 26-12-1-21-10-22-22-1-15 11-27 26-26zm34 94v116c0 9-7 16-16 16h-98c-2 0-4-2-4-4V154c0-2 2-4 4-4h98c9 0 16 7 16 16zm-15 162c9 0 15 6 15 14s-6 14-15 14H43c-9 0-15-6-15-14s6-14 15-14h234z"/><glyph glyph-name="ion-ios-business" unicode="" horiz-adv-x="320" d="M50 368c-10 0-18 8-18 18s8 18 18 18h220c10 0 18-8 18-18s-8-18-18-18H50zm252-20c10 0 18-8 18-18 0-9-7-17-16-18V12c0-13-11-24-24-24h-88c-4 0-8 4-8 8v40c0 4-4 8-8 8h-32c-4 0-8-4-8-8V-4c0-4-4-8-8-8H40C27-12 16-1 16 12v300c-9 1-16 9-16 18 0 10 8 18 18 18h284zM96 84v16c0 4-4 8-8 8H72c-4 0-8-4-8-8V84c0-4 4-8 8-8h16c4 0 8 4 8 8zm0 64v16c0 4-4 8-8 8H72c-4 0-8-4-8-8v-16c0-4 4-8 8-8h16c4 0 8 4 8 8zm0 64v16c0 4-4 8-8 8H72c-4 0-8-4-8-8v-16c0-4 4-8 8-8h16c4 0 8 4 8 8zm0 64v16c0 4-4 8-8 8H72c-4 0-8-4-8-8v-16c0-4 4-8 8-8h16c4 0 8 4 8 8zm80-192v16c0 4-4 8-8 8h-16c-4 0-8-4-8-8V84c0-4 4-8 8-8h16c4 0 8 4 8 8zm0 64v16c0 4-4 8-8 8h-16c-4 0-8-4-8-8v-16c0-4 4-8 8-8h16c4 0 8 4 8 8zm0 64v16c0 4-4 8-8 8h-16c-4 0-8-4-8-8v-16c0-4 4-8 8-8h16c4 0 8 4 8 8zm0 64v16c0 4-4 8-8 8h-16c-4 0-8-4-8-8v-16c0-4 4-8 8-8h16c4 0 8 4 8 8zm80-192v16c0 4-4 8-8 8h-16c-4 0-8-4-8-8V84c0-4 4-8 8-8h16c4 0 8 4 8 8zm0 64v16c0 4-4 8-8 8h-16c-4 0-8-4-8-8v-16c0-4 4-8 8-8h16c4 0 8 4 8 8zm0 64v16c0 4-4 8-8 8h-16c-4 0-8-4-8-8v-16c0-4 4-8 8-8h16c4 0 8 4 8 8zm0 64v16c0 4-4 8-8 8h-16c-4 0-8-4-8-8v-16c0-4 4-8 8-8h16c4 0 8 4 8 8z"/><glyph glyph-name="ion-ios-cafe" unicode="" d="M322 44c8 0 14-7 14-15s-7-13-15-13H62c-8 0-14 7-14 15s6 13 14 13h260zm29 286c39-14 65-49 65-88 0-25-11-49-30-67s-45-27-72-27h-6c-16-28-36-50-58-64-19-12-38-20-44-20h-60c-9 0-46 12-78 49-18 21-33 47-44 79-14 38-22 84-24 136 0 11 4 22 12 30 7 7 17 10 27 10h274c10 0 19-3 26-10 8-8 12-17 12-28zm-29-154c37 3 66 32 66 66 0 13-5 26-13 37-7 9-16 16-26 21-4-47-13-90-27-124z"/><glyph glyph-name="ion-ios-calculator" unicode="" horiz-adv-x="296" d="M264 400c18 0 32-14 32-32V16c0-18-14-32-32-32H32C14-16 0-2 0 16v352c0 18 14 32 32 32h232zm-12-272c0 13-11 24-24 24s-24-11-24-24V48c0-13 11-24 24-24s24 11 24 24v80zm0 80c0 13-11 24-24 24s-24-11-24-24 11-24 24-24 24 11 24 24zM172 48c0 13-11 24-24 24s-24-11-24-24 11-24 24-24 24 11 24 24zm0 80c0 13-11 24-24 24s-24-11-24-24 11-24 24-24 24 11 24 24zm0 80c0 13-11 24-24 24s-24-11-24-24 11-24 24-24 24 11 24 24zM92 48c0 13-11 24-24 24S44 61 44 48s11-24 24-24 24 11 24 24zm0 80c0 13-11 24-24 24s-24-11-24-24 11-24 24-24 24 11 24 24zm0 80c0 13-11 24-24 24s-24-11-24-24 11-24 24-24 24 11 24 24zm-48 80c0-9 7-16 16-16h176c9 0 16 7 16 16v48c0 9-7 16-16 16H60c-9 0-16-7-16-16v-48z"/><glyph glyph-name="ion-ios-calendar" unicode="" d="M376 352c22 0 40-18 40-40V40c0-22-18-40-40-40H40C18 0 0 18 0 40v272c0 22 18 40 40 40h40v-24c0-4 4-8 8-8h16c4 0 8 4 8 8v24h192v-24c0-4 4-8 8-8h16c4 0 8 4 8 8v24h40zm8-300v180c0 4-4 8-8 8H40c-4 0-8-4-8-8V52c0-11 9-20 20-20h312c11 0 20 9 20 20zM112 376v-24H80v24c0 4 4 8 8 8h16c4 0 8-4 8-8zm224 0v-24h-32v24c0 4 4 8 8 8h16c4 0 8-4 8-8z"/><glyph glyph-name="ion-ios-call" unicode="" horiz-adv-x="384" d="M373 83c15-15 12-18 9-26 0 0-5-12-13-24-10-15-18-23-30-29s-35-12-95 22c-48 27-85 53-125 93-40 39-66 77-93 125-34 60-27 82-21 94s13 21 28 31c12 8 24 13 24 13 8 3 11 6 26-9s37-49 45-67c10-20 10-28 0-42-8-12-17-20-14-34s24-41 50-67 52-46 66-49 22 5 34 14c14 10 22 10 42 0 17-8 52-30 67-45z"/><glyph glyph-name="ion-ios-camera" unicode="" horiz-adv-x="384" d="M134 173c0 32 26 57 58 57s58-25 58-57-26-57-58-57-58 25-58 57zm220 115c18 0 30-13 30-31V81c0-18-12-33-30-33H34C16 48 0 63 0 81v176c0 18 16 31 34 31h7v8c0 4 4 8 8 8h26c4 0 8-4 8-8v-8h4c4 0 9 2 12 5 28 32 40 43 52 43h85c12 0 23-11 51-43 3-3 7-5 12-5h55zM196 88c44 2 79 37 81 81 2 50-39 91-89 89-44-2-79-37-81-81-2-50 39-91 89-89zm92 142c7 0 13 6 13 13s-6 13-13 13-13-6-13-13 6-13 13-13z"/><glyph glyph-name="ion-ios-car" unicode="" d="M368 252c26-22 48-46 48-85V91c0-4-2-7-6-8-15-3-62-10-202-10S21 80 6 83c-4 1-6 4-6 8v76c0 39 24 62 48 85 15 33 49 92 100 92h120c51 0 86-61 100-92zm-226 68c-35 0-62-60-62-70h256c0 10-22 70-62 70H142zM64 116c18 0 32 14 32 32s-14 32-32 32-32-14-32-32 14-32 32-32zm216 32c0 9-7 16-16 16H152c-9 0-16-7-16-16s7-16 16-16h112c9 0 16 7 16 16zm72-32c18 0 32 14 32 32s-14 32-32 32-32-14-32-32 14-32 32-32zM112 64c0-11 1-24-5-24H22s-6 12-6 29c0 0 48-5 96-5zm192 0c48 0 96 5 96 5 0-16 2-29-5-29h-86s-5 14-5 24z"/><glyph glyph-name="ion-ios-card" unicode="" horiz-adv-x="448" d="M448 320v-48H0v48c0 18 14 32 32 32h384c18 0 32-14 32-32zM0 64v160h448V64c0-18-14-32-32-32H32C14 32 0 46 0 64zm142 48c-8 0-14-6-14-14s6-14 14-14h164c8 0 14 6 14 14s-6 14-14 14H142zm-72 0c-8 0-14-6-14-14s6-14 14-14h12c8 0 14 6 14 14s-6 14-14 14H70z"/><glyph glyph-name="ion-ios-cart" unicode="" d="M88 24c0 13 10 24 23 24s25-11 25-24-11-24-24-24-24 11-24 24zM336 0c-13 0-24 12-24 25s12 23 25 23 23-12 23-25-11-23-24-23zm80 316v-3l-16-116c0-3-2-5-5-5l-278-47 4-24c3-16 7-23 11-26 3-3 7-3 9-3h237c8 0 14-6 14-14s-6-14-14-14H141c-13 0-25 5-33 16-7 9-12 22-14 36L54 328s-2 9-2 10c-1 7-5 15-10 16s-17 2-26 2-16 5-16 14 7 14 16 14c27 0 41 0 49-9 6-8 8-12 12-19 1-3 5-4 8-4l325-32c2 0 5-2 6-4z"/><glyph glyph-name="ion-ios-cash" unicode="" horiz-adv-x="448" d="M434 92c8 0 14-6 14-14s-6-14-14-14H14C6 64 0 70 0 78s6 14 14 14h420zm0-48c8 0 14-6 14-14s-6-14-14-14H14C6 16 0 22 0 30s6 14 14 14h420zm-21 324c19 0 35-16 35-35V155c0-19-16-35-35-35H35c-19 0-35 16-35 35v178c0 19 16 35 35 35h378zM82 152c8 0 14 6 14 14s-6 14-14 14H46c-8 0-14-6-14-14s6-14 14-14h36zm0 156c8 0 14 6 14 14s-6 14-14 14H46c-8 0-14-6-14-14s6-14 14-14h36zm142-144c44 0 80 36 80 80s-36 80-80 80-80-36-80-80 36-80 80-80zm178-12c8 0 14 6 14 14s-6 14-14 14h-36c-8 0-14-6-14-14s6-14 14-14h36zm0 156c8 0 14 6 14 14s-6 14-14 14h-36c-8 0-14-6-14-14s6-14 14-14h36zm-231-66c0 29 24 53 53 53s53-24 53-53-24-53-53-53-53 24-53 53z"/><glyph glyph-name="ion-ios-cellular" unicode="" d="M360 396c36-34 56-78 56-126s-20-93-56-127c-3-2-5-3-9-3s-7 2-10 4c-3 3-4 5-4 9s1 8 4 10c30 29 47 67 47 107 0 41-17 79-47 107-3 3-4 5-4 9s1 7 4 10c3 2 6 4 10 4s6-2 9-4zm-57-45c23-22 35-50 35-81s-12-59-35-81c-2-2-6-4-9-4s-7 1-9 3-4 6-4 9 2 7 4 9c18 17 28 40 28 64s-10 47-28 64c-2 2-4 6-4 9s2 6 4 8 6 4 9 4 7-2 9-4zM75 377c-30-28-47-66-47-107s17-79 47-107c3-3 4-6 4-10s-1-6-4-9c-3-2-6-4-10-4s-6 1-9 3C20 177 0 222 0 270s20 92 56 126c3 2 5 4 9 4s7-2 10-4c3-3 4-6 4-10s-1-7-4-9zm56-43c-18-17-28-40-28-64s10-47 28-64c2-2 4-6 4-9s-2-7-4-9-6-3-9-3-7 2-9 4c-23 22-35 50-35 81s12 59 35 81c2 2 6 4 9 4s7-2 9-4 4-5 4-8-2-7-4-9zm77-9c26 0 48-22 48-48 0-22-14-40-34-46V-2c0-8-6-14-14-14s-14 6-14 14v233c-20 6-34 24-34 46 0 26 22 48 48 48z"/><glyph glyph-name="ion-ios-chatboxes" unicode="" d="M378 278c21 0 38-17 38-38V85c0-21-21-38-42-38h-1c-6 0-10-2-10-8v-50c0-5-5-6-9-3l-63 58c-2 2-5 3-8 3H156c-21 0-38 17-38 38v155c0 21 17 38 38 38h222zm-252 24c-18 0-32-14-32-32V170H33c-18 0-33 14-33 32v165c0 18 15 33 33 33h238c18 0 33-15 33-33v-65H126z"/><glyph glyph-name="ion-ios-chatbubbles" unicode="" d="M383 127l16-58s1-2 1-3c0-4-4-8-8-8-2 0-4 1-4 1l-57 21c-3 1-6 2-10 2-3 0-6-1-9-2s-15-5-26-8-32-8-47-8c-96 0-171 77-171 169 0 12 2 23 4 34 16 76 86 133 170 133 96 0 174-75 174-167 0-33-11-64-28-90-1-1-1-2-2-3-2-4-3-9-3-13zM270 56c4 1 9 2 13 3-4-5-7-9-7-9-30-35-73-56-120-56-21 0-42 5-61 12-4 2-6 2-6 2-2 0-4 0-6-1L27-15c-1 0-2-1-3-1-2 0-3 1-5 2-2 2-4 5-3 8 0 0 12 60 12 62s-1 4-3 8C9 88 0 117 0 146c0 42 19 82 52 111l8 7c-1-4-3-9-4-13s-1-9-2-13c-1-6-2-14-2-21 0-92 75-169 171-169 10 0 24 2 34 4 5 1 9 3 13 4z"/><glyph glyph-name="ion-ios-checkbox-outline" unicode="" horiz-adv-x="384" d="M352 384c18 0 32-14 32-32V32c0-18-14-32-32-32H32C14 0 0 14 0 32v320c0 18 14 32 32 32h320zm4-348v312c0 4-4 8-8 8H36c-4 0-8-4-8-8V36c0-4 4-8 8-8h312c4 0 8 4 8 8zm-56 219c2-2 1-4 0-6L166 115c-2-2-7-5-12-5-4 0-7 1-11 5l-56 56c-2 2-2 4 0 6l17 18c1 1 2 1 3 1s2 0 3-1l44-45 122 123c1 1 2 1 3 1s2 0 3-1z"/><glyph glyph-name="ion-ios-checkbox" unicode="" horiz-adv-x="384" d="M352 384c18 0 32-14 32-32V32c0-18-14-32-32-32H32C14 0 0 14 0 32v320c0 18 14 32 32 32h320zm-52-134c2 2 1 3-1 5l-17 18c-1 1-2 2-3 2s-2-1-3-2L154 150l-44 45c-1 1-2 1-3 1s-2 0-3-1l-18-18c-2-2-2-4 0-6l56-56c4-4 8-5 12-5 5 0 10 3 12 5z"/><glyph glyph-name="ion-ios-checkmark-circle-outline" unicode="" d="M315 255c2-2 1-4 0-6L181 115c-2-2-7-5-12-5-4 0-7 1-11 5l-56 56c-2 2-2 4 0 6l17 18c1 1 2 1 3 1s2 0 3-1l44-45 122 123c1 1 2 1 3 1s2 0 3-1zM208 372c-48 0-93-19-127-53s-53-79-53-127S47 99 81 65s79-53 127-53 93 19 127 53 53 79 53 127-19 93-53 127-79 53-127 53zm0 28c115 0 208-93 208-208S323-16 208-16 0 77 0 192s93 208 208 208z"/><glyph glyph-name="ion-ios-checkmark-circle" unicode="" d="M208 400c115 0 208-93 208-208S323-16 208-16 0 77 0 192s93 208 208 208zm106-150c2 2 2 3 0 5l-17 18c-1 1-2 2-3 2s-2-1-3-2L169 150l-44 45c-1 1-2 1-3 1s-2 0-3-1l-18-18c-2-2-2-4 0-6l56-56c4-4 8-5 12-5 5 0 10 3 12 5z"/><glyph glyph-name="ion-ios-checkmark" unicode="" horiz-adv-x="215" d="M214 255c2-2 1-4 0-6L81 115h-1c-2-2-6-5-11-5-4 0-8 1-12 5L1 171c-2 2-2 4 0 6l18 18c1 1 2 1 3 1s2 0 3-1l44-45 122 123c1 1 2 1 3 1s2 0 3-1z"/><glyph glyph-name="ion-ios-clipboard" unicode="" horiz-adv-x="352" d="M60 288c0 9 7 16 16 16h200c9 0 16-7 16-16V48c0-9-7-16-16-16H76c-9 0-16 7-16 16v240zm182 79c8 0 14-7 14-15v-18c0-1-1-2-2-2H98c-1 0-2 1-2 2v16c0 10 8 17 18 17h14c0 6 1 11 3 16 2 6 6 11 10 16 9 10 21 17 35 17s27-7 36-17c4-5 8-10 10-16 2-5 2-10 2-16h18zm-63-15c7 1 12 6 13 13 1 10-8 19-18 18-7-1-12-7-13-14-1-10 8-18 18-17zm141 48c18 0 32-14 32-32V0c0-17-15-32-32-32H32C14-32 0-18 0 24v344c0 18 14 32 32 32h76c2 0 3-2 2-3-3-4-6-9-8-16 0-1 0-1-1-1h-1c-22 0-27-18-27-37v-9c0-1-1-2-2-2H49c-9 0-16-7-16-16V19c0-9 7-16 16-16h253c9 0 16 7 16 16v297c0 9-7 16-16 16h-20c-1 0-2 1-2 2v15c-1 19-8 34-27 34h-1c-1 0-2 0-2 1-2 5-4 9-7 13-1 1 0 3 2 3h75z"/><glyph glyph-name="ion-ios-clock" unicode="" d="M355 339c81-81 81-213 0-294S142-36 61 45s-81 213 0 294 213 81 294 0zM42 184c3 1 5 3 6 6 1 6-3 11-9 10-3-1-6-3-7-6-1-6 4-11 10-10zm26-82c2 2 3 5 2 8-2 5-9 8-13 4-2-2-3-5-2-8 2-5 9-8 13-4zm2 172c1 3 0 6-2 8-4 4-11 1-13-4-1-3 0-6 2-8 4-4 11-1 13 4zm62-230c1 3-1 6-3 8-4 4-10 2-12-3-1-3 0-7 2-9 4-4 11-1 13 4zm-3 288c2 2 4 5 3 8-2 5-9 8-13 4-2-2-3-6-2-9 2-5 8-7 12-3zm36-77l33-61c1-2 2-5 2-8V64c0-5 3-8 8-8s8 3 8 8v122c0 5-2 10-4 15l-34 63c-2 4-7 4-11 2s-4-7-2-11zm45-239c3 1 5 3 6 6 1 6-3 11-9 10-3-1-6-3-7-6-1-6 4-11 10-10zm0 336c3 1 5 3 6 6 1 6-3 11-9 10-3-1-6-3-7-6-1-6 4-11 10-10zm87-312c2 2 4 6 3 9-2 5-9 7-13 3-2-2-3-5-2-8 2-5 8-8 12-4zm3 295c1 3-1 7-3 9-4 4-10 1-12-4-1-3 0-6 2-8 4-4 11-2 13 3zm61-229c1 3 0 6-2 8-4 4-11 1-13-4-1-3 0-6 2-8 4-4 11-1 13 4zm-2 164c2 2 3 5 2 8-2 5-9 8-13 4-2-2-3-5-2-8 2-5 9-8 13-4zm19-86c3 1 5 3 6 6 1 6-3 11-9 10-3-1-6-3-7-6-1-6 4-11 10-10z"/><glyph glyph-name="ion-ios-close-circle-outline" unicode="" d="M283 139c6-6 6-16 0-22s-16-6-22 0l-53 52-53-52c-6-6-16-6-22 0s-7 15 0 22 52 53 52 53-46 47-52 53-7 15 0 22 16 6 22 0l53-52 53 52c6 6 16 6 22 0s6-16 0-22l-52-53zm-75 233c-48 0-93-19-127-53s-53-79-53-127S47 99 81 65s79-53 127-53 93 19 127 53 53 79 53 127-19 93-53 127-79 53-127 53zm0 28c115 0 208-93 208-208S323-16 208-16 0 77 0 192s93 208 208 208z"/><glyph glyph-name="ion-ios-close-circle" unicode="" d="M208 400c115 0 208-93 208-208S323-16 208-16 0 77 0 192s93 208 208 208zm53-283c6-6 16-6 22 0s6 16 0 22l-52 53 52 53c6 6 6 16 0 22s-16 6-22 0l-53-52-53 52c-6 6-16 6-22 0-3-3-5-7-5-11s2-8 5-11l52-53-52-53c-3-3-5-7-5-11s2-8 5-11c6-6 16-6 22 0l53 52z"/><glyph glyph-name="ion-ios-close" unicode="" horiz-adv-x="191" d="M118 192l68-68c6-6 6-17 0-23s-16-6-22 0l-68 68-69-68c-6-6-16-6-22 0-3 3-5 7-5 11s2 9 5 12l68 68-68 68c-3 3-5 8-5 12s2 8 5 11c6 6 16 6 22 0l69-68 68 68c6 6 16 6 22 0s6-17 0-23z"/><glyph glyph-name="ion-ios-cloud-circle" unicode="" d="M208 400c115 0 208-93 208-208S323-16 208-16 0 77 0 192s93 208 208 208zm83-272c25 0 45 21 45 47 0 23-16 42-38 46-4 38-34 67-72 67-26 0-49-14-62-34-4 2-10 4-15 4-20 0-36-17-36-37-20-6-33-25-33-46 0-26 20-47 45-47h166z"/><glyph glyph-name="ion-ios-cloud-done" unicode="" horiz-adv-x="512" d="M437 218c43-8 75-47 75-92 0-50-41-94-91-94H91C41 32 0 76 0 126c0 41 26 80 66 93 1 39 33 74 72 74 10 0 19-3 27-6 27 39 72 65 123 65 77 0 141-59 149-134zm-75 18c2 2 2 3 0 5l-17 18c-1 1-2 2-3 2s-2-1-3-2L217 136l-44 45c-1 1-2 1-3 1s-2 0-3-1l-18-18c-2-2-2-4 0-6l56-56c4-4 8-5 12-5 5 0 10 3 12 5z"/><glyph glyph-name="ion-ios-cloud-download" unicode="" horiz-adv-x="512" d="M437 282c43-8 75-47 75-92 0-50-41-94-91-94H269v141c0 7-6 13-13 13s-13-6-13-13V96H91c-50 0-91 44-91 94 0 41 26 80 66 93 1 39 33 74 72 74 10 0 19-3 27-6 27 39 72 65 123 65 77 0 141-59 149-134zM243 12v84h26V12l48 47c5 5 13 5 18 0s5-13 0-18l-70-69c-1-1-2-2-4-3s-3-1-5-1c-3 0-7 2-9 4l-70 69c-5 5-5 13 0 18s13 5 18 0z"/><glyph glyph-name="ion-ios-cloud-outline" unicode="" horiz-adv-x="512" d="M288 324c-40 0-77-20-100-53l-7-9c-4-5-10-7-16-5l-11 4c-5 2-10 4-16 4-11 0-22-5-30-14s-14-20-14-32v-11c0-6-4-10-9-12l-10-4c-14-4-25-13-34-25-8-12-13-27-13-41 0-17 7-33 19-46s28-20 44-20h330c16 0 32 7 44 20s19 29 19 46c0 15-5 30-15 42s-23 21-37 23l-11 2c-6 1-10 5-11 11l-1 11c-3 30-17 57-39 77s-52 32-82 32zm0 28c77 0 141-59 149-134 43-8 75-47 75-92 0-50-41-94-91-94H91C41 32 0 76 0 126c0 41 26 80 66 93 1 39 33 74 72 74 10 0 19-3 27-6 27 39 72 65 123 65z"/><glyph glyph-name="ion-ios-cloud-upload" unicode="" horiz-adv-x="512" d="M437 282c43-8 75-47 75-92 0-50-41-94-91-94H269v142l48-47c5-5 13-5 18 0s5 13 0 18l-70 69c-2 2-6 4-9 4-2 0-3 0-5-1s-3-2-4-3l-70-69c-5-5-5-13 0-18s13-5 18 0l48 47V96H91c-50 0-91 44-91 94 0 41 26 80 66 93 1 39 33 74 72 74 10 0 19-3 27-6 27 39 72 65 123 65 77 0 141-59 149-134zM243-19V96h26V-19c0-7-6-13-13-13s-13 6-13 13z"/><glyph glyph-name="ion-ios-cloud" unicode="" horiz-adv-x="512" d="M437 218c43-8 75-47 75-92 0-50-41-94-91-94H91C41 32 0 76 0 126c0 41 26 80 66 93 1 39 33 74 72 74 10 0 19-3 27-6 27 39 72 65 123 65 77 0 141-59 149-134z"/><glyph glyph-name="ion-ios-cloudy-night" unicode="" horiz-adv-x="448" d="M246 153c42 0 76-35 76-77S288 0 246 0H60C26 0 0 29 0 62c0 32 24 59 55 62v9c0 50 41 91 92 91 44 0 80-30 89-71h10zm174-10c7 0 16 2 23 3 4 0 6-3 4-6-4-6-10-13-15-19-22-25-53-43-87-51 0 2 1 4 1 6 0 26-10 52-29 71-17 17-39 28-63 30-7 18-19 34-34 46-21 17-47 25-73 25h-5c9 61 54 112 114 130 8 2 15 5 23 6 3 0 6-3 4-6l-11-19c-10-20-16-42-16-65 0-40 16-79 46-107 30-29 68-45 110-45 3 0 6 1 8 1z"/><glyph glyph-name="ion-ios-cloudy" unicode="" horiz-adv-x="448" d="M204 352c70 0 113-49 125-103h13c58 0 106-50 106-109S400 32 342 32H85C38 32 0 73 0 120c0 44 34 84 77 88 0 4-1 9-1 13 0 71 58 131 128 131z"/><glyph glyph-name="ion-ios-code-download" unicode="" horiz-adv-x="384" d="M268 305l114-109c1-1 2-2 2-4s-1-3-2-4L268 79c-1-1-2-2-4-2s-3 1-4 2l-14 13c-1 1-2 2-2 4s1 3 2 4l96 92-96 92c-1 1-2 2-2 4s1 3 2 4l14 13c1 1 3 2 4 2s3-1 4-2zM42 192l96-92c1-1 2-2 2-4s-1-3-2-4l-14-13c-1-1-2-2-4-2-1 0-3 1-4 2L2 188c-1 1-2 2-2 4s1 3 2 4l114 109c1 1 3 2 4 2s3-1 4-2l14-13c1-1 2-2 2-4s-1-3-2-4zm227-11c0-4-2-8-5-11l-62-57c-3-2-6-4-10-4s-7 2-10 4l-62 57c-3 3-5 7-5 11s1 7 4 10 7 4 11 4c3 0 6-1 9-3l39-35v106c0 8 6 15 14 15s14-7 14-15V157l39 35c3 2 5 4 9 4s7-2 10-5h1c3-3 4-6 4-10z"/><glyph glyph-name="ion-ios-code-working" unicode="" horiz-adv-x="384" d="M382 196c1-1 2-2 2-4s-1-3-2-4L268 79c-1-1-2-2-4-2s-3 1-4 2l-14 13c-1 1-2 2-2 4s1 3 2 4l96 92-96 92c-1 1-2 2-2 4s1 3 2 4l14 13c1 1 3 2 4 2s3-1 4-2zm-340-4l96-92c1-1 2-2 2-4s-1-3-2-4l-14-13c-1-1-2-2-4-2-1 0-3 1-4 2L2 188c-1 1-2 2-2 4s1 3 2 4l114 109c1 1 3 2 4 2s3-1 4-2l14-13c1-1 2-2 2-4s-1-3-2-4zm128 0c0 12 10 22 22 22s22-10 22-22-10-22-22-22-22 10-22 22zm-64 0c0 12 10 22 22 22s22-10 22-22-10-22-22-22-22 10-22 22zm128 0c0 12 10 22 22 22s22-10 22-22-10-22-22-22-22 10-22 22z"/><glyph glyph-name="ion-ios-code" unicode="" horiz-adv-x="384" d="M268 305l114-109c1-1 2-2 2-4s-1-3-2-4L268 79c-1-1-2-2-4-2s-3 1-4 2l-14 13c-1 1-2 2-2 4s1 3 2 4l96 92-96 92c-1 1-2 2-2 4s1 3 2 4l14 13c1 1 3 2 4 2s3-1 4-2zm-128-17c0-2-1-3-2-4l-96-92 96-92c1-1 2-2 2-4s-1-3-2-4l-14-13c-1-1-2-2-4-2-1 0-3 1-4 2L2 188c-1 1-2 2-2 4s1 3 2 4l114 109c1 1 3 2 4 2s3-1 4-2l14-13c1-1 2-2 2-4z"/><glyph glyph-name="ion-ios-cog" unicode="" d="M409 206c4 0 7-4 7-8v-12c0-4-3-8-7-8l-26-4c-3-1-7-2-7-6 0-3 0-7-1-10s1-7 4-9l23-12c4-2 5-6 4-10l-4-11c-1-4-6-6-10-5l-26 5c-4 1-6-1-8-4s-3-6-5-9-1-6 1-9l17-20c3-3 3-8 0-11l-7-9c-3-3-8-3-11-1l-23 13c-3 2-6 1-9-1-2-2-5-4-7-6-3-2-4-6-3-9l10-25c2-4 0-8-4-10l-10-6c-4-2-8 0-10 3l-17 20c-2 3-6 4-9 3s-5-3-9-4c-3-1-6-4-6-8l1-26c0-4-3-7-7-8l-12-2c-4-1-8 1-9 5l-8 25c-1 3-4 6-8 6-2 0-3-1-5-1s-3 1-5 1c-4 0-7-3-8-6l-8-25c-1-4-5-6-9-5l-12 2c-4 1-6 4-6 8v26c0 4-3 7-6 8-4 1-7 3-10 4s-6 0-8-3l-16-20c-2-3-7-5-11-3l-10 6c-4 2-5 6-3 10l9 25c1 3 0 7-3 9-2 2-5 4-7 6-3 2-6 3-9 1L63 53c-3-2-8-2-11 1l-7 9c-3 3-3 8 0 11l18 20c2 3 2 6 0 9s-3 6-5 9-5 5-8 4l-26-5c-4-1-8 1-9 5l-4 11c-1 4-1 7 3 9l24 13c3 2 5 6 4 9s-2 6-2 9c0 4-3 6-7 7l-26 4c-4 0-7 4-7 8v12c0 4 3 8 7 8l26 4c3 1 7 3 7 7 0 3 1 6 2 9s-1 7-4 9l-24 13c-4 2-4 6-3 10l4 11c1 4 5 6 9 5l26-5c4-1 6 1 8 4s3 5 5 8 2 7 0 10l-18 20c-3 3-3 7 0 10l7 9c3 3 8 4 11 2l22-14c3-2 7-1 10 1 2 2 5 4 7 6 3 2 4 6 3 9l-10 25c-2 4 0 8 4 10l10 6c4 2 8 1 10-2l17-21c3-3 5-4 8-3 2 1 8 3 10 4 3 1 6 4 6 8l-1 26c0 4 3 8 7 9l12 2c4 1 8-2 9-6l8-25c1-3 4-5 8-5h10c4 0 7 2 8 5l8 25c1 4 5 7 9 6l12-2c4-1 6-5 6-9v-26c0-4 3-7 6-8 4-1 9-4 9-4 4-1 7 1 9 3l16 21c2 3 7 4 11 2l10-6c4-2 5-6 3-10l-9-25c-1-3 0-7 3-9 2-2 5-4 7-6 3-2 6-3 9-1l23 14c3 2 8 1 11-2l7-9c3-3 3-8 0-11l-18-19c-2-3-2-7 0-10s3-5 5-8 5-5 8-4l26 5c4 1 8-1 9-5l4-11c1-4 1-8-3-10l-24-13c-3-2-5-6-4-9s2-6 2-9c0-4 3-6 7-7zM134 91l56 97c1 2 1 6 0 8l-56 97c-5 9-18 10-26 3-27-26-44-63-44-104s17-78 45-104c8-7 20-6 25 3zm214 67c2 10-6 20-16 20H221c-3 0-6-2-7-4l-56-97c-5-9-1-20 9-23 13-4 27-6 41-6 68 0 125 47 140 110zm-16 48c10 0 18 10 16 20-15 63-72 110-140 110-14 0-28-2-41-6-10-3-14-14-9-23l56-97c1-2 4-4 7-4h111z"/><glyph glyph-name="ion-ios-color-fill" unicode="" horiz-adv-x="384" d="M167 330l172-170c4-4 1-11-5-11-10 0-23-1-29-7-8-8-88-86-126-123-11-10-28-10-39 0L9 145c-11 11-12 29-1 40l85 84-50 49c-19 19-19 49 0 68 9 9 22 14 34 14s25-5 34-14l56-56zm-103 8l48-49 29 28-50 49c-4 4-9 6-14 6-6 0-11-3-15-8-6-8-5-19 2-26zm275-230c11-12 45-53 45-76 0-26-22-48-48-48s-48 21-48 48c0 22 35 64 45 76 2 2 4 2 6 0z"/><glyph glyph-name="ion-ios-color-filter" unicode="" horiz-adv-x="424" d="M398 199c17-22 26-49 26-77 0-34-13-65-37-89S333-4 299-4c-33 0-64 12-87 35-24-23-54-35-87-35S61 9 37 33 0 88 0 122c0 28 9 55 26 77 16 20 38 36 62 44-1 6-1 13-1 19 0 34 12 65 36 89s55 37 89 37 65-13 89-37 36-55 36-89c0-6 0-13-1-19 24-8 46-23 62-44zM212 362c-55 0-100-44-100-100 0-5 0-9 1-14h12c33 0 64-12 87-35 24 23 54 35 87 35h12c1 5 1 9 1 14 0 56-45 100-100 100zm0-201h6c-2 4-4 7-6 11-2-4-4-7-6-11h6zM165 30c11 5 22 11 31 20-14 21-23 46-23 72 0 6 1 13 2 19-18 6-35 16-49 29s-25 30-32 48c-19-6-36-19-48-35-14-18-21-39-21-61C25 66 70 22 125 22c14 0 27 2 40 8zm16 136c4 10 9 19 15 28-9 9-20 15-31 20-13 6-26 9-40 9h-5c11-27 33-48 61-57zm31-94c9 15 14 32 14 50 0 5-1 9-2 14h-24c-1-5-1-9-1-14 0-18 4-35 13-50zm47 142c-11-5-22-11-31-20 6-9 11-18 15-28 28 9 50 30 61 57h-5c-14 0-27-3-40-9zm40-192c55 0 100 44 100 100 0 22-7 43-21 61-12 16-29 29-48 35-7-18-18-35-32-48s-31-23-49-29c1-6 2-13 2-19 0-26-9-51-23-72 9-9 20-15 31-20 13-6 26-8 40-8z"/><glyph glyph-name="ion-ios-color-palette" unicode="" horiz-adv-x="384" d="M366 100c12-11 14-35 0-48-39-34-94-52-149-52h-1C161 0 105 18 63 55c-84 74-84 195 0 269 45 40 102 60 158 60 48 0 94-15 128-45 46-41 46-108 0-149l-30-27c-14-13-14-31 0-44 7-6 11-8 23-10 8-1 17-3 24-9zM56 232c0-18 14-32 32-32s32 14 32 32-14 32-32 32-32-14-32-32zm40-126c18 0 32 14 32 32s-14 32-32 32-32-14-32-32 14-32 32-32zm64 161c18 0 32 14 32 32s-14 32-32 32-32-14-32-32 14-32 32-32zm72-219c26 0 48 22 48 48s-22 48-48 48-48-22-48-48 22-48 48-48zm24 208c18 0 32 14 32 32s-14 32-32 32-32-14-32-32 14-32 32-32z"/><glyph glyph-name="ion-ios-color-wand" unicode="" horiz-adv-x="384" d="M382 42c3-3 3-8 0-11L353 2c-3-3-8-3-11 0L97 248c-3 3-3 8 0 11l29 29c3 3 8 3 11 0zm-26-14c3 3 3 8 0 11L166 230c-3 3-8 3-11 0s-3-9 0-12L345 28c3-3 8-3 11 0zM129 328c-7 0-12 5-12 12v32c0 7 5 12 12 12s12-5 12-12v-32c0-7-5-12-12-12zm0-143c7 0 12-5 12-12v-32c0-7-5-12-12-12s-12 5-12 12v32c0 7 5 12 12 12zm78 73c0 7 5 12 12 12h32c7 0 12-5 12-12s-5-12-12-12h-32c-7 0-12 5-12 12zm-151 0c0-7-6-12-12-12H12c-7 0-12 5-12 12s5 12 12 12h32c7 0 12-5 12-12zm5 49l-21 21c-5 5-5 12 0 17 2 2 5 3 8 3s7-1 9-3l21-21c5-5 5-12 0-17-2-2-6-3-9-3s-6 1-8 3zm8-99c3 0 7-1 9-3 5-5 5-12 0-17l-21-21c-2-2-6-4-9-4s-6 2-8 4-4 5-4 8 2 7 4 9l21 21c2 2 5 3 8 3zm119 96c-3 0-6 1-8 3s-4 6-4 9 2 6 4 8l21 21c2 2 5 3 8 3s7-1 9-3c5-5 5-12 0-17l-21-21c-2-2-6-3-9-3z"/><glyph glyph-name="ion-ios-compass" unicode="" d="M232 168c1-1 1-3 0-4l-98-49c-2-1-4 1-3 3l49 98c1 1 3 1 4 0zm-24 232c115 0 208-93 208-208S323-16 208-16 0 77 0 192s93 208 208 208zm41-249l81 160c1 2-1 4-3 3l-159-81h-1L86 73c-1-2 1-4 3-3z"/><glyph glyph-name="ion-ios-construct" unicode="" horiz-adv-x="480" d="M364 384zm-105 6c6-4 18-12 10-12 0 0-35 6-60-15-18-16-30-31-31-53s7-34 35-62l5 3c1 1 3 1 4 1 2 0 6-1 7-2l14-14-50-47-13 13c-2 2-3 6-1 10l4 7c-25 25-39 37-51 40-4 1-8 2-12 2-10 0-17-3-21-7s-12-16-5-23l12-12c2-2 2-6 0-8l-33-35c-1-1-3-1-4-1s-3 0-4 1L2 240c-2 2-2 5 0 7l34 34c1 1 3 2 4 2 0 0 16-8 24 0s0 20 6 29 16 19 23 26 35 34 81 53c16 7 33 9 47 9 15 0 29-4 38-10zM446 48c2-2 2-6 0-8l-55-54c-1-1-3-2-4-2s-3 1-4 2c0 0-56 66-114 127l47 51c61-58 130-116 130-116zm17 275c13-13 18-29 17-41s-6-36-30-60c-17-17-45-30-72-30-11 0-22 3-32 8-2 1-6 2-9 2s-7-1-11-5c-2-2-9-10-21-22-3-4-7-8-11-12-8-8-17-17-26-27-4-4-7-8-11-12C203 67 138-3 138-3c-8-9-18-13-29-13S85-11 77-3c-17 17-18 45 0 61 0 0 70 65 127 119 4 4 8 7 12 11 10 9 19 18 27 26 4 4 7 8 11 11 13 12 21 20 23 21 7 8 5 15 3 20-19 44 2 83 22 104 21 22 48 29 60 30h2c12 0 28-6 39-17l-53-53 10-51 51-9zM121 22c5 5 5 14 0 20-5 5-13 5-19 0-5-5-5-14 0-20 5-5 13-5 19 0z"/><glyph glyph-name="ion-ios-contact" unicode="" d="M208 400c115 0 208-93 208-208S323-16 208-16C100-16 12 65 1 170c-1 7-1 15-1 22s0 15 1 22c11 105 99 186 207 186zM344 74c29 33 44 74 44 118 0 48-19 93-53 127s-79 53-127 53-93-19-127-53-53-79-53-127c0-44 15-85 44-118 21 8 56 21 80 28 2 1 3 0 3 10 0 11-1 18-4 24-4 8-7 20-9 31-4 5-10 15-14 33-3 16-1 22 1 28v2c1 4 0 23-3 38-2 10 1 34 15 52 9 12 27 26 58 28h18c32-2 49-16 58-28 14-18 17-42 15-52-3-15-4-34-3-38 0 0 1-1 1-2 2-6 3-12 0-28-4-18-10-27-14-32-2-11-5-24-9-32-3-7-6-15-6-23 0-10 0-10 2-11 23-7 60-19 83-28z"/><glyph glyph-name="ion-ios-contacts" unicode="" d="M208 400c115 0 208-93 208-208S323-16 208-16 0 77 0 192s93 208 208 208zm143-264c9-3 17-8 23-15 10 22 14 46 14 71 0 49-19 94-54 128-34 33-80 52-128 52-47 0-91-19-125-52-34-34-53-80-53-128 0-33 9-64 25-92 13 7 27 8 42 11 7 1 23 5 25 13s2 15 2 23c0 3-1 3-3 5-4 4-6 9-8 14-2 8-3 16-4 24-9-2-10 16-12 21-1 4-2 19 4 22-3 5-4 12-5 18-2 13-2 26 3 39 10 26 36 39 63 38 26-1 52-15 60-41 4-12 3-27 1-40-1-5-3-10-5-14 8-3 4-21 3-24-2-5-2-21-11-19-1-10-2-22-7-31-1-2-8-8-8-10v-11c0-5 0-10 2-15s10-7 14-8c14-5 28-5 42-10 28-10 45-35 45-65 0-2 3-3 5-2s3 2 5 3c4 3 6 8 6 12-2 17-7 31-20 44-20 19-46 25-46 25-3 1-8 2-12 3s-4 6 0 8c8 3 13 5 16 6 4 1 15 4 16 9v14c-21 2-29 6-29 6-6 3-2 6 0 11 14 32-10 88 32 105 7 3 15 4 25 4 12 0 23-2 31-7 15-9 20-27 20-44 0-20-4-44 7-62 2-3 4-4 0-6 0 0-6-5-31-6 0 0-2-13 1-17 6-7 21-7 29-10z"/><glyph glyph-name="ion-ios-contract" unicode="" horiz-adv-x="384" d="M120 243L4 360c-5 5-5 15 0 20 3 3 6 4 10 4s7-1 10-4l117-116v77c0 8 6 14 14 14s14-6 14-14V229c0-8-6-14-14-14H43c-8 0-14 6-14 14s6 14 14 14h77zm109-28c-8 0-14 6-14 14v112c0 8 6 14 14 14s14-6 14-14v-77l117 116c3 3 6 4 10 4s7-1 10-4c5-5 5-15 0-20L264 243h77c8 0 14-6 14-14s-6-14-14-14H229zM14 0C10 0 7 1 4 4c-5 5-5 15 0 20l116 117H43c-8 0-14 6-14 14s6 14 14 14h112c8 0 14-6 14-14V43c0-8-6-14-14-14s-14 6-14 14v77L24 4c-3-3-6-4-10-4zm215 29c-8 0-14 6-14 14v112c0 8 6 14 14 14h112c8 0 14-6 14-14s-6-14-14-14h-77L380 24c5-5 5-15 0-20-3-3-6-4-10-4s-7 1-10 4L243 120V43c0-8-6-14-14-14z"/><glyph glyph-name="ion-ios-contrast" unicode="" d="M208 400c115 0 208-93 208-208S323-16 208-16 0 77 0 192s93 208 208 208zM335 65c34 34 53 79 53 127s-19 93-53 127-79 53-127 53V12c48 0 93 19 127 53z"/><glyph glyph-name="ion-ios-copy" unicode="" horiz-adv-x="384" d="M288 333c-10 0-19 9-19 19v72c0 4 3 8 7 8 6 0 16-4 21-8l77-64c6-5 10-13 10-21 0-3-3-6-6-6h-90zm-45 19c0-25 20-45 45-45h96V64c0-18-14-32-32-32H112c-18 0-32 14-32 32v336c0 18 14 32 32 32h131v-80zM52 36C52 18 66 4 84 4h236v-20c0-18-14-32-32-32H32C14-48 0-34 0-16v352c0 18 14 32 32 32h20V36z"/><glyph glyph-name="ion-ios-create" unicode="" horiz-adv-x="448" d="M372 362c3 3 9 3 12 0l26-26c3-3 3-9 0-12L208 122c-2-2-4-2-6-2h-26c-4 0-8 4-8 8v26c0 2 0 4 2 6zm72 19c3-3 4-8 4-12s-1-8-4-11l-12-12c-2-2-3-2-5 0l-22 22-10 10c-2 2-2 4 0 6l11 12c3 3 8 4 12 4s8-1 11-4v-1zM218 106l1 1 148 147c2 2 6 2 6-2V43c0-32-26-59-58-59H59C27-16 0 11 0 43v224c0 32 27 58 59 58h241c4 0 4-5 2-7L155 171l-1-1c-3-3-5-7-5-11v-42c0-9 7-16 16-16h42c4 0 8 2 11 5z"/><glyph glyph-name="ion-ios-crop" unicode="" horiz-adv-x="384" d="M78 384c8 0 14-6 14-14v-20c0-8-6-14-14-14s-14 6-14 14v20c0 8 6 14 14 14zm14-278c0-8 6-14 14-14h152c8 0 14-6 14-14s-6-14-14-14H92c-16 0-28 12-28 28v166c0 8 6 14 14 14s14-6 14-14V106zm278-14c8 0 14-6 14-14s-6-14-14-14h-20c-8 0-14 6-14 14s6 14 14 14h20zM0 306c0 8 6 14 14 14h278c16 0 28-12 28-28V14c0-8-6-14-14-14s-14 6-14 14v264c0 8-6 14-14 14H14c-8 0-14 6-14 14z"/><glyph glyph-name="ion-ios-cube" unicode="" d="M393 318c6-3 6-11 0-14l-179-94c-4-2-8-2-12 0L23 304c-6 3-6 11 0 14l179 81c4 2 8 2 12 0zM232-15c-5-3-11 1-11 7v187c0 3 1 6 4 7l180 93c5 3 11-1 11-7V87c0-3-2-6-4-7zM0 272c0 6 6 10 11 7l180-93c3-1 4-4 4-7V-8c0-6-6-10-11-7L4 80c-2 1-4 4-4 7v185z"/><glyph glyph-name="ion-ios-cut" unicode="" horiz-adv-x="360" d="M232 171c-25-33-38-42-38-42l-14-9c-7-4-20-14-29-28-14-23-25-55-26-58-4-14-12-26-22-35-11-10-25-15-39-15-17 0-34 8-46 22C6 19 0 37 0 55s6 36 18 49c12 14 28 22 46 22 12 0 24-4 34-11l10 20c3 7 7 15 11 22 2 4 5 9 9 15 3 5 6 9 9 14 8 12 15 22 15 23l15 20 3 4 10 13 114 154c6 0 15-2 20-7 12-11 19-23 19-41 0-13-4-28-11-46-10-24-64-102-90-135zM64 27c13 0 24 12 24 28 0 15-11 28-24 28S40 70 40 55s11-28 24-28zm116 133c9 0 16 7 16 16s-7 16-16 16-16-7-16-16 7-16 16-16zm-64 28c-35 48-69 97-78 118-7 18-11 32-11 46 0 18 7 35 19 44 4 3 10 4 19 4l105-141-47-65c-2-3-3-6-5-9-1 1-1 2-2 3zm180-62c35 0 64-32 64-71s-29-71-64-71c-14 0-28 5-39 15-10 9-18 21-22 35-1 3-12 35-26 58-5 7-10 12-15 17l36 33 11 14c4-7 7-14 10-21 4-8 8-14 11-20 10 7 22 11 34 11zm0-99c13 0 24 12 24 28 0 15-11 28-24 28s-24-13-24-28 11-28 24-28z"/><glyph glyph-name="ion-ios-desktop" unicode="" horiz-adv-x="448" d="M320 6c0-3-2-6-5-6H133c-3 0-5 3-5 6 0 2 2 4 4 4l22 2c12 3 21 16 23 28l1 8h92l1-8c2-12 11-25 23-28l22-2c2 0 4-2 4-4zm121 371c4-4 7-11 7-17V88c0-6-3-13-7-17s-11-7-17-7H24c-6 0-13 3-17 7S0 82 0 88v272c0 6 3 13 7 17s11 7 17 7h400c6 0 13-3 17-7zM224 88c4 0 8 4 8 8s-4 8-8 8-8-4-8-8 4-8 8-8zm204 40c2 0 4 2 4 4v224c0 7-5 12-12 12H28c-7 0-12-5-12-12V132c0-2 2-4 4-4h408z"/><glyph glyph-name="ion-ios-disc" unicode="" d="M208 282c50 0 90-40 90-90s-40-90-90-90-90 40-90 90 40 90 90 90zm0-130c22 0 40 18 40 40s-18 40-40 40-40-18-40-40 18-40 40-40zm0 248c115 0 208-93 208-208S323-16 208-16 0 77 0 192s93 208 208 208zm0-322c63 0 114 51 114 114s-51 114-114 114S94 255 94 192 145 78 208 78z"/><glyph glyph-name="ion-ios-document" unicode="" horiz-adv-x="304" d="M208 293c-10 0-19 9-19 19v72c0 4 3 8 7 8 8 0 15-3 21-8l76-63c7-6 11-14 11-23 0-3-2-5-5-5h-91zm-45 19c0-25 20-45 45-45h96V24c0-18-14-32-32-32H32C14-8 0 6 0 24v336c0 18 14 32 32 32h131v-80z"/><glyph glyph-name="ion-ios-done-all" unicode="" horiz-adv-x="320" d="M222 238l-67-69-26 27 66 69c1 1 3 2 4 2s2-1 3-2l20-21c2-2 2-4 0-6zM28 195l76-79-13-14c-2-2-7-6-13-6-4 0-9 3-13 7L1 168c-2 2-2 4 0 6l20 21c1 1 3 1 4 1s2 0 3-1zm291 71c2-2 2-5 0-7L168 103c-2-2-7-6-13-6-4 0-10 2-14 6l-63 65c-2 2-2 5 0 7l20 21c1 1 2 1 3 1s3 0 4-1l50-52 138 143c1 1 2 1 3 1s2 0 3-1z"/><glyph glyph-name="ion-ios-download" unicode="" horiz-adv-x="320" d="M280 304c22 0 40-18 40-40V24c0-22-18-40-40-40H40C18-16 0 2 0 24v240c0 22 18 40 40 40h107V124l-48 47c-5 5-13 5-18 0s-5-13 0-18l70-69c1-1 2-2 4-3s3-1 5-1c3 0 7 2 9 4l70 69c5 5 5 13 0 18s-13 5-18 0l-48-47v180h107zm-107 83v-83h-26v83c0 7 6 13 13 13s13-6 13-13z"/><glyph glyph-name="ion-ios-easel" unicode="" horiz-adv-x="448" d="M402-14c2-4 1-8-1-12s-7-6-11-6h-1c-6 0-11 3-13 8l-26 70c-2 4 0 8 2 12s7 6 11 6c5 0 10-3 12-8zM86 64c4 0 9-2 11-6 3-4 3-8 1-12L72-24c-2-5-6-8-12-8h-1c-4 0-9 2-11 6s-3 8-1 12l26 70c2 5 7 8 13 8zm139 0c7 0 13-6 13-13V14c0-7-6-14-13-14h-1c-7 0-14 7-14 14v37c0 7 7 13 14 13h1zm167 256c4 0 8-4 8-8V136c0-4-4-8-8-8H56c-4 0-8 4-8 8v176c0 4 4 8 8 8h336zm24 48c18 0 32-14 32-32V112c0-18-14-32-32-32H32C14 80 0 94 0 112v224c0 18 14 32 32 32h384zm4-244v205c0 3-1 6-3 8s-5 3-8 3H44c-9 0-16-7-16-16V124c0-9 7-16 16-16h360c9 0 16 7 16 16zM224 416c13 0 24-13 24-26h-48c0 13 11 26 24 26z"/><glyph glyph-name="ion-ios-egg" unicode="" horiz-adv-x="320" d="M160 416c64 0 160-133 160-257S256-32 160-32 0 35 0 159s96 257 160 257z"/><glyph glyph-name="ion-ios-exit" unicode="" d="M96 312c0 22 18 40 40 40h240c22 0 40-18 40-40V72c0-22-18-40-40-40H136c-22 0-40 18-40 40v107h180l-47-48c-5-5-5-13 0-18s13-5 18 0l69 70c1 1 2 2 3 4s1 3 1 5c0 3-2 7-4 9l-69 70c-5 5-13 5-18 0s-5-13 0-18l47-48H96v107zM13 205h83v-26H13c-7 0-13 6-13 13s6 13 13 13z"/><glyph glyph-name="ion-ios-expand" unicode="" horiz-adv-x="384" d="M48 356l117-117c5-5 5-15 0-20-3-3-6-4-10-4s-7 1-10 4L28 336v-78c0-8-6-14-14-14s-14 6-14 14v112c0 8 6 14 14 14h112c8 0 14-6 14-14s-6-14-14-14H48zm322 28c8 0 14-6 14-14V258c0-8-6-14-14-14s-14 6-14 14v78L239 219c-3-3-6-4-10-4s-7 1-10 4c-5 5-5 15 0 20l117 117h-78c-8 0-14 6-14 14s6 14 14 14h112zM155 169c4 0 7-1 10-4 5-5 5-15 0-20L48 28h78c8 0 14-6 14-14s-6-14-14-14H14C6 0 0 6 0 14v112c0 8 6 14 14 14s14-6 14-14V48l117 117c3 3 6 4 10 4zm215-29c8 0 14-6 14-14V14c0-8-6-14-14-14H258c-8 0-14 6-14 14s6 14 14 14h78L219 145c-5 5-5 15 0 20 3 3 6 4 10 4s7-1 10-4L356 48v78c0 8 6 14 14 14z"/><glyph glyph-name="ion-ios-eye-off" unicode="" horiz-adv-x="448" d="M56 380L412 24c6-6 6-14 0-20-2-2-5-3-7-4-5-1-9 0-13 4L36 360c-6 6-6 14 0 20s14 6 20 0zm172-278c12 1 24 4 35 9l43-44c-25-12-52-19-82-19-98 0-155 61-220 133-6 6-6 16 0 22 30 32 57 60 85 81l54-54c-5-10-8-22-9-34-2-53 41-96 94-94zm216 80c-24-26-52-57-85-82l-54 54c5 10 8 22 9 34 2 53-41 96-94 94-12 0-25-4-35-9l-43 44c26 12 53 19 82 19 96 0 168-69 220-133 5-6 5-15 0-21zm-284 5c-1 8 1 17 3 24l79-80c-7-2-15-4-23-3-31 2-57 28-59 59zm128 5c0-6-1-13-3-19l-18 19h3c6 0 12 2 18 4v-4zm-64 47v-5l-19 19c6 2 13 3 19 3h3c-2-5-3-11-3-17z"/><glyph glyph-name="ion-ios-eye" unicode="" horiz-adv-x="448" d="M224 336c96 0 168-69 220-133 5-6 5-15 0-21-51-56-124-134-220-134-98 0-155 61-220 133-6 6-6 16 0 22 76 83 140 133 220 133zm4-234c46 2 84 40 86 86 2 53-41 96-94 94-46-2-84-40-86-86-2-53 41-96 94-94zm-4 137c0-26 21-47 46-47 6 0 12 2 18 4v-4c0-37-31-67-69-64-31 2-57 28-59 59-3 38 27 69 64 69h3c-2-5-3-11-3-17z"/><glyph glyph-name="ion-ios-fastforward" unicode="" horiz-adv-x="448" d="M444 199c5-3 5-11 0-14L236 65c-5-3-12 1-12 7v115L12 65c-5-3-12 1-12 7v240c0 6 7 10 12 7l212-122v115c0 6 7 10 12 7z"/><glyph glyph-name="ion-ios-female" unicode="" d="M14-16c-4 0-7 1-10 4C-1-7-1 2 4 7l45 45-37 37c-5 5-5 14 0 19 2 3 5 4 9 4s7-1 10-4l37-37 50 50c-26 31-40 70-40 110 0 23 4 45 13 66 8 20 20 37 36 53s34 29 54 37c21 9 43 13 66 13s45-4 66-13c20-8 37-21 53-37s29-33 37-53c9-21 13-43 13-66s-4-45-13-66c-8-20-21-38-37-54s-33-28-53-36c-21-9-43-13-66-13-40 0-79 14-110 40L87 52l37-37c5-5 5-14 0-19-2-3-5-4-9-4s-7 1-10 4L68 33 23-12c-2-3-5-4-9-4zm132 347c-27-27-41-62-41-100s15-73 42-100 62-42 100-42 73 15 100 42 42 62 42 100-15 73-42 100-62 42-100 42-74-15-101-42z"/><glyph glyph-name="ion-ios-filing" unicode="" d="M376 384c22 0 40-18 40-40V40c0-22-18-40-40-40H40C18 0 0 18 0 40v304c0 22 18 40 40 40h336zm12-176v132c0 9-7 16-16 16H44c-9 0-16-7-16-16V208c0-9 7-16 16-16h87c7 0 13-5 15-11 4-12 14-21 26-21h72c12 0 22 9 26 21 2 6 8 11 15 11h87c9 0 16 7 16 16zm-50 84H78c-8 0-14 6-14 14s6 14 14 14h260c8 0 14-6 14-14s-6-14-14-14zm0-64H78c-8 0-14 6-14 14s6 14 14 14h260c8 0 14-6 14-14s-6-14-14-14z"/><glyph glyph-name="ion-ios-film" unicode="" horiz-adv-x="448" d="M416 368c18 0 32-14 32-32V48c0-18-14-32-32-32H32C14 16 0 30 0 48v288c0 18 14 32 32 32h384zM88 48v48c0 4-4 8-8 8H32c-4 0-8-4-8-8V48c0-4 4-8 8-8h48c4 0 8 4 8 8zm0 80v48c0 4-4 8-8 8H32c-4 0-8-4-8-8v-48c0-4 4-8 8-8h48c4 0 8 4 8 8zm0 80v48c0 4-4 8-8 8H32c-4 0-8-4-8-8v-48c0-4 4-8 8-8h48c4 0 8 4 8 8zm0 80v48c0 4-4 8-8 8H32c-4 0-8-4-8-8v-48c0-4 4-8 8-8h48c4 0 8 4 8 8zm232-108c7 0 12 5 12 12s-5 12-12 12H128c-7 0-12-5-12-12s5-12 12-12h192zM424 48v48c0 4-4 8-8 8h-48c-4 0-8-4-8-8V48c0-4 4-8 8-8h48c4 0 8 4 8 8zm0 80v48c0 4-4 8-8 8h-48c-4 0-8-4-8-8v-48c0-4 4-8 8-8h48c4 0 8 4 8 8zm0 80v48c0 4-4 8-8 8h-48c-4 0-8-4-8-8v-48c0-4 4-8 8-8h48c4 0 8 4 8 8zm0 80v48c0 4-4 8-8 8h-48c-4 0-8-4-8-8v-48c0-4 4-8 8-8h48c4 0 8 4 8 8z"/><glyph glyph-name="ion-ios-finger-print" unicode="" d="M403 266c8-24 13-50 13-73v-11c0-7-7-13-14-13-4 0-8 1-10 4s-4 6-4 10c0 2 1 7 1 10 0 20-5 42-12 63s-17 38-27 48c-5 5-5 15 0 20 3 3 6 4 10 4s7-1 10-4c13-13 24-34 33-58zM95 337c-4 0-9 2-11 6-2 3-3 6-2 10s2 7 5 9c35 25 76 38 121 38 47 0 92-17 131-49 6-5 7-13 2-19-3-3-7-5-11-5-3 0-6 1-8 3-34 28-73 43-114 43-39 0-75-12-105-33-2-2-5-3-8-3zM27 193c0-30 6-53 15-82 1-4 1-8-1-11s-5-5-9-6c-1 0-3-1-4-1-6 0-11 4-13 10-10 31-15 57-15 90 0 50 18 99 51 137 3 3 7 4 11 4 3 0 6-1 8-3 3-2 5-5 5-9s-1-7-3-10c-29-33-45-75-45-119zm281 125c26-23 46-55 57-94 12-43 16-96 10-155-1-7-7-12-14-12h-1c-8 1-13 7-12 15 5 55 2 106-9 145-10 34-27 62-49 81s-50 29-79 29c-40 0-76-14-101-41-23-25-36-59-33-95 2-31 6-48 9-63 5-23 9-42 6-92 0-7-7-13-14-13-1 0-3 1-4 1-6 2-10 7-10 14 3 46-1 64-5 85-3 16-7 33-9 66-3 43 11 84 40 115 30 32 73 50 121 50 36 0 70-12 97-36zm18-138c5-31 7-56 7-77 0-42-5-76-5-77-1-7-7-12-14-12h-2c-4 1-7 3-9 6s-3 6-2 10c0 0 4 33 4 73 0 20-2 43-7 73-5 31-16 57-32 75-16 17-36 26-58 26-15 0-29-3-42-9-2-1-4-1-6-1-4 0-8 2-11 5s-4 8-3 12 4 7 8 9c16 8 35 12 54 12 30 0 56-12 77-34s35-53 41-91zm-189 64c-11-16-14-35-10-59 9-54 18-116 10-174-1-7-7-12-14-12h-1c-4 0-7 2-9 5s-3 7-3 11c8 54-1 114-10 165-5 31 0 58 15 80 3 4 7 6 11 6 3 0 7-1 9-3 5-5 6-13 2-19zM270 60c7 0 13-5 13-13 0-1 1-21-3-41-1-6-6-11-13-11h-5c-6 2-10 9-9 16 3 17 3 35 3 35 0 8 5 14 13 14h1zm-23 182c11-10 19-26 24-44 8-28 11-67 12-114 0-4-2-7-4-10-3-3-5-4-9-4-8 0-14 7-14 14-1 45-5 82-12 108-3 12-13 39-38 39-11 0-20-4-26-11-6-8-9-21-6-37 13-65 16-127 9-184-1-7-7-12-14-12h-1c-7 1-13 7-12 15 7 54 4 114-8 176-6 31 2 50 10 60 11 13 28 20 48 20 15 0 30-6 41-16zm-30-40c8-19 14-51 16-90 3-39 2-80-2-116-1-7-6-12-13-12h-2c-4 0-7 2-9 5s-3 6-3 10c4 33 4 73 2 110s-7 67-14 83c-3 7 0 15 7 18 2 1 3 1 5 1 6 0 11-4 13-9z"/><glyph glyph-name="ion-ios-fitness" unicode="" horiz-adv-x="448" d="M320 168H128c-4 0-8 4-8 8v32c0 4 4 8 8 8h192c4 0 8-4 8-8v-32c0-4-4-8-8-8zm26-82v212c0 12 10 22 22 22s22-10 22-22V86c0-12-10-22-22-22s-22 10-22 22zm82 170c11 0 20-9 20-20v-88c0-11-9-20-20-20h-12c-4 0-8 4-8 8v112c0 4 4 8 8 8h12zM102 86c0-12-10-22-22-22S58 74 58 86v212c0 12 10 22 22 22s22-10 22-22V86zM32 256c4 0 8-4 8-8V136c0-4-4-8-8-8H20c-11 0-20 9-20 20v88c0 11 9 20 20 20h12z"/><glyph glyph-name="ion-ios-flag" unicode="" horiz-adv-x="320" d="M311 367c5 1 9-3 9-8V168c0-4-3-7-7-8 0 0-37-7-72-7s-57 6-83 12-51 15-77 15c-21 0-37-2-47-4-4-1-6-4-6-8V14c0-8-8-15-16-14C5 1 0 7 0 14v354l4 3c2 1 21 13 77 13 28 0 55-5 81-11 25-5 50-12 78-12 18 0 48 3 61 5 4 0 7 1 10 1z"/><glyph glyph-name="ion-ios-flame" unicode="" horiz-adv-x="288" d="M108 400c98-59 187-161 180-267C280 8 171-16 145-16S1 22 0 133c-1 136 137 132 108 267zm74-355c2 6 3 12 3 18 0 41-41 88-41 88s-40-47-40-88c0-6 0-12 2-18 10-39 66-39 76 0z"/><glyph glyph-name="ion-ios-flash-off" unicode="" horiz-adv-x="256" d="M254 5c4-7 2-15-5-19-2-1-5-2-7-2-5 0-9 3-12 7L2 379c-4 7-2 15 5 19s16 2 20-5zm-57 130l-53 89h104c6 0 11-8 7-14zm-5 276l-51-182-42 72 86 113c3 4 8 1 7-3zM59 249l53-89H8c-6 0-10 8-6 14zm5-276l51 182 42-72L71-30c-3-4-8-1-7 3z"/><glyph glyph-name="ion-ios-flash" unicode="" horiz-adv-x="256" d="M248 224c6 0 11-8 7-14L71-30c-3-4-8-1-7 3l52 187H8c-6 0-10 7-6 13l183 241c3 4 8 1 7-3l-52-187h108z"/><glyph glyph-name="ion-ios-flashlight" unicode="" horiz-adv-x="170" d="M146 416c18 0 24-14 24-32H0c0 18 6 32 24 32h122zM25 300C9 318 0 333 0 368h170c0-33-10-50-25-68-8-9-12-19-12-31V3c0-22-18-35-40-35H77C55-32 37-19 37 3v266c0 12-4 22-12 31zm32-90v-36c0-16 13-28 28-28s28 12 28 28v36c0 16-13 28-28 28s-28-12-28-28zm8-35c0 11 9 20 20 20s20-9 20-20-9-20-20-20-20 9-20 20z"/><glyph glyph-name="ion-ios-flask" unicode="" horiz-adv-x="385" d="M374 94c8-16 11-32 11-46-1-36-27-64-63-64H65C29-16 1 12 0 48c0 14 4 30 12 46l116 194v80c0 2-2 4-4 4-7 0-12 5-12 12v4c0 7 5 12 12 12h137c7 0 12-5 12-12v-4c0-7-5-12-12-12-2 0-4-2-4-4v-80zM98 160h189c6 0 10 7 7 12l-61 102c-3 5-4 10-4 16v82h-73v-82c0-6-1-11-4-16L91 172c-3-5 1-12 7-12z"/><glyph glyph-name="ion-ios-flower" unicode="" d="M337 218c52 0 79-11 79-26s-27-26-79-26c-27 0-60 6-86 13-1-3-2-6-4-9 23-14 52-32 71-51 37-37 48-63 37-74-3-2-6-4-10-4-14 0-36 13-64 41-19 19-37 48-51 71-3-2-7-3-10-4 7-26 14-59 14-86 0-52-11-79-26-79s-26 27-26 79c0 27 7 60 14 86-3 1-6 2-9 4-14-23-33-52-52-71-28-28-50-41-64-41-4 0-7 1-10 4-11 11 0 37 37 74 19 19 48 37 71 51-2 3-3 6-4 9-26-7-59-13-86-13-52 0-79 11-79 26s27 26 79 26c27 0 60-7 86-14 1 3 2 6 4 9-23 14-52 33-71 52-37 37-48 63-37 74 3 2 6 4 10 4 14 0 36-13 64-41 19-19 37-48 51-71 3 2 6 3 9 4-7 26-13 59-13 86 0 52 11 79 26 79s26-27 26-79c0-27-7-60-14-86 3-1 7-2 10-4 14 23 32 52 51 71 28 28 50 41 64 41 4 0 7-1 10-4 11-11 0-37-37-74-19-19-48-38-71-52 2-3 3-6 4-9 26 7 59 14 86 14zM270 72c7-7 14-14 20-19 9-31 7-50-4-54-2-1-3-1-5-1-10 0-22 11-34 33 1 10 2 20 2 32s-1 25-3 38c8-11 16-21 24-29zM146 312c-7 7-14 13-20 18-9 31-7 51 4 55 2 1 3 1 5 1 10 0 22-11 34-33-1-10-2-20-2-32s1-25 3-38c-8 11-16 21-24 29zM88 129c-7-7-14-14-19-20-13-4-24-5-32-5-12 0-19 4-22 10-4 10 6 24 32 38 10-1 20-1 32-1s25 1 38 3c-11-8-21-17-29-25zm240 125c7 7 14 14 19 20 13 4 24 6 32 6 12 0 19-4 22-10 4-10-6-25-32-39-10 1-20 2-32 2s-25-2-38-4c11 8 21 17 29 25zM146 72c8 8 16 18 24 29-2-13-3-26-3-38 0-10 0-20 1-28-14-24-26-36-36-36-2 0-3 0-5 1-10 4-13 22-5 50 8 6 16 14 24 22zm124 240c-8-8-16-19-24-30 2 13 3 27 3 39 0 10 0 19-1 27 14 24 26 36 36 36 2 0 3 1 5 0 10-4 13-23 5-51-8-6-16-13-24-21zM52 232c-28 16-41 30-36 41 3 6 11 10 22 10 8 0 17-2 28-5 6-8 14-16 22-24s18-17 29-25c-13 2-26 4-38 4-10 0-19 0-27-1zm312-80c28-16 41-31 36-42-3-6-11-9-22-9-8 0-17 2-28 5-6 8-14 15-22 23s-18 17-29 25c13-2 26-3 38-3 10 0 19 0 27 1z"/><glyph glyph-name="ion-ios-folder-open" unicode="" horiz-adv-x="448" d="M416 329v-41H32v73c0 13 11 23 25 23h96c8 0 12-2 17-7l23-23c2-2 3-2 6-2h194c13 0 23-10 23-23zM32 260h392c15 0 25-10 24-30-1-21-24-205-24-205-2-17-10-25-23-25H49C36 0 27 7 24 25c0 0-22 192-24 211s11 24 24 24h8z"/><glyph glyph-name="ion-ios-folder" unicode="" horiz-adv-x="448" d="M448 329v-42c0-2-2-1-3 0s-5 1-7 1H10c-2 0-6 0-7-1s-3-2-3 0v74c0 13 11 23 25 23h96c8 0 12-2 17-7l23-23c2-2 3-2 6-2h258c13 0 23-10 23-23zM0 32v212c0 9 7 16 16 16h416c9 0 16-7 16-16V32c0-18-14-32-32-32H32C15 0 0 14 0 32z"/><glyph glyph-name="ion-ios-football" unicode="" d="M208 400c115 0 208-93 208-208S323-16 208-16 0 77 0 192s93 208 208 208zm127-81c-20 20-43 35-69 44-1 0-3 0-4-1l-38-26c-1-1-2-2-2-3v-63c0-1 1-2 2-3l56-48c1-1 3-2 4-1l58 27c1 0 2 1 2 2l14 41c0 1 1 3 0 4-6 10-15 19-23 27zM261 22l17 43v3l-23 42c-1 1-1 2-3 2h-88c-1 0-2-1-3-2l-23-42v-3l17-43c0-1 1-3 2-3 16-5 33-7 51-7 17 0 35 2 51 7 1 0 2 2 2 3zm-67 311c0 1-1 3-2 3l-38 26c-1 1-3 0-4 0-26-9-49-23-69-43-8-8-17-17-23-27-1-1 0-3 0-4l14-41c0-1 1-2 2-2l58-27c1-1 3 0 4 1l57 47c1 1 1 3 1 4v63zM30 184c-1-1-2-2-2-3 2-35 15-68 35-96 1-1 2-1 3-1l46-1c2 0 3 1 4 2l23 44v3l-14 57c0 1-2 3-3 3l-52 24c-1 1-3 0-4-1zm270-99c1-1 2-2 4-2l46 1c1 0 2 0 3 1 20 28 33 61 35 96 0 1-1 2-2 3l-36 31c-1 1-3 2-4 1l-52-24c-1 0-3-2-3-3l-14-57v-3z"/><glyph glyph-name="ion-ios-funnel" unicode="" d="M0 361c0 13 9 23 21 23h374c12 0 21-10 21-23 0-6-2-12-6-16L258 165c-4-4-5-9-5-15V16c0-11-10-19-20-15l-55 20c-9 3-15 12-15 22v107c0 6-1 11-5 15L6 345c-4 4-6 10-6 16z"/><glyph glyph-name="ion-ios-gift" unicode="" d="M384 312c18 0 32-14 32-32v-20c0-2-2-4-4-4H4c-2 0-4 2-4 4v20c0 18 14 32 32 32h84c-12 11-20 27-20 44 0 33 28 60 63 60 21 0 38-9 49-27 11 18 28 27 49 27 35 0 63-27 63-60 0-17-8-33-20-44h84zm-127 76c-19 0-34-16-34-64h34s34 14 34 32-15 32-34 32zm-98 0c-19 0-34-14-34-32s15-32 34-32h34c0 48-15 64-34 64zM16 222c0 4 4 8 8 8h170V-32H48C30-32 16-18 16 0v222zm376 8c4 0 8-4 8-8V0c0-18-14-32-32-32H222v262h170z"/><glyph glyph-name="ion-ios-git-branch" unicode="" horiz-adv-x="332" d="M262 352c39 0 70-31 70-70 0-34-24-63-56-69-1-28-14-46-38-64-25-19-56-25-78-29-27-5-42-14-51-24 19-13 31-35 31-58 0-39-31-70-70-70S0-1 0 38c0 17 6 33 17 46 10 11 24 19 38 22v172c-15 3-28 11-38 22-11 13-17 29-17 46 0 39 31 70 70 70s70-31 70-70c0-17-6-34-18-47-10-11-24-19-39-22V108c10 13 32 33 73 40 19 3 45 7 65 23 17 13 26 24 27 43-32 7-56 35-56 68 0 39 31 70 70 70zm-234-6c0-23 19-42 42-42s42 19 42 42-19 42-42 42-42-19-42-42zm84-308c0 23-19 42-42 42S28 61 28 38 47-4 70-4s42 19 42 42zm150 202c23 0 42 19 42 42s-19 42-42 42-42-19-42-42 19-42 42-42z"/><glyph glyph-name="ion-ios-git-commit" unicode="" horiz-adv-x="448" d="M434 206c8 0 14-6 14-14s-6-14-14-14h-77c-3-32-17-62-41-84-25-24-58-36-92-36s-67 12-92 36c-24 22-38 52-41 84H14c-8 0-14 6-14 14s6 14 14 14h77c3 32 17 62 41 84 25 24 58 36 92 36s67-12 92-36c24-22 38-52 41-84h77zm-135-89c20 20 31 47 31 75s-11 55-31 75-47 31-75 31-55-11-75-31-31-47-31-75 11-55 31-75 47-31 75-31 55 11 75 31z"/><glyph glyph-name="ion-ios-git-compare" unicode="" horiz-adv-x="448" d="M202 120l59-59c4-4 7-10 7-16s-3-11-7-15l-57-58c-3-3-6-4-10-4s-7 2-10 4c-5 6-5 15 0 20l40 40h-90c-34 0-58 16-70 45-9 23-9 50-9 65v136c-15 3-28 11-38 22-11 13-17 29-17 46 0 39 31 70 70 70s70-31 70-70c0-17-6-34-18-47-10-11-24-19-39-22V142c0-17 1-42 9-59 8-16 22-23 42-23h89l-41 40c-3 3-4 6-4 10s1 7 4 10 6 4 10 4 7-1 10-4zM70 304c23 0 42 19 42 42s-19 42-42 42-42-19-42-42 19-42 42-42zm323-198c14-3 28-11 38-22 11-13 17-29 17-46 0-39-31-70-70-70s-70 31-70 70c0 17 6 34 18 47 10 11 24 19 39 22v135c0 17-1 41-9 58-8 16-22 24-42 24h-89l41-40c3-3 4-6 4-10s-1-7-4-10-6-4-10-4-7 1-10 4l-59 59c-4 4-7 10-7 16s3 11 7 15l57 58c3 3 6 4 10 4s7-2 10-4c5-6 5-15 0-20l-40-40h90c34 0 58-16 70-45 9-23 9-50 9-65V106zM378-4c23 0 42 19 42 42s-19 42-42 42-42-19-42-42 19-42 42-42z"/><glyph glyph-name="ion-ios-git-merge" unicode="" horiz-adv-x="384" d="M314 230c39 0 70-31 70-70s-31-70-70-70c-33 0-61 24-68 56-12 0-25 3-50 13-31 12-72 32-113 89V107c15-3 29-11 39-22 12-13 18-30 18-47 0-39-31-70-70-70S0-1 0 38c0 17 6 33 17 46 10 11 24 19 38 22v172c-15 3-28 11-38 22-11 13-17 29-17 46 0 39 31 70 70 70s70-31 70-70c0-30-18-56-45-66 40-63 81-83 111-95 21-8 29-11 39-11 6 32 35 56 69 56zM112 38c0 23-19 42-42 42S28 61 28 38 47-4 70-4s42 19 42 42zM70 304c23 0 42 19 42 42s-19 42-42 42-42-19-42-42 19-42 42-42zm244-186c23 0 42 19 42 42s-19 42-42 42-42-19-42-42 19-42 42-42z"/><glyph glyph-name="ion-ios-git-network" unicode="" horiz-adv-x="384" d="M313 416c39 0 71-32 71-71 0-34-24-62-56-69v-57c0-3-2-6-4-7l-117-60v-44c15-3 28-11 38-23 11-13 18-29 18-46 0-39-32-71-71-71s-71 32-71 71c0 34 24 62 56 69v44L60 212c-2 1-4 4-4 7v57c-15 3-28 11-38 23-11 13-18 29-18 46 0 39 32 71 71 71s70-32 70-71c0-34-23-62-55-69v-43l106-55 106 55v43c-15 3-28 11-38 23-11 13-17 29-17 46 0 39 31 71 70 71zM30 345c0-22 19-41 41-41s40 19 40 41-18 41-40 41-41-19-41-41zM233 39c0 22-19 41-41 41s-41-19-41-41 19-41 41-41 41 19 41 41zm80 265c22 0 41 19 41 41s-19 41-41 41-40-19-40-41 18-41 40-41z"/><glyph glyph-name="ion-ios-git-pull-request" unicode="" horiz-adv-x="384" d="M329 106c14-3 28-11 38-22 11-13 17-29 17-46 0-39-31-70-70-70s-70 31-70 70c0 17 6 34 18 47 10 11 24 19 39 22v135c0 17-1 41-9 58-8 16-22 24-42 24h-77l41-40c3-3 4-6 4-10s-1-7-4-10-6-4-10-4-7 1-10 4l-56 56c-3-11-8-21-16-29-10-11-24-19-39-22V107c15-3 29-11 39-22 12-13 18-30 18-47 0-39-31-70-70-70S0-1 0 38c0 17 6 33 17 46 10 11 24 19 38 22v164c-15 3-28 11-38 22-11 13-17 29-17 46 0 39 31 70 70 70 32 0 59-22 67-51l55 55c3 3 6 4 10 4s7-2 10-4c5-6 5-15 0-20l-40-40h78c34 0 58-16 70-45 9-23 9-50 9-65V106zM112 38c0 23-19 42-42 42S28 61 28 38 47-4 70-4s42 19 42 42zM70 296c23 0 42 19 42 42s-19 42-42 42-42-19-42-42 19-42 42-42zM314-4c23 0 42 19 42 42s-19 42-42 42-42-19-42-42 19-42 42-42z"/><glyph glyph-name="ion-ios-glasses" unicode="" horiz-adv-x="446" d="M432 207c8 0 14-7 14-15s-6-15-14-15h-7c-3-21-13-40-28-55-17-17-40-26-64-26-51 0-93 43-93 96 0 6-7 15-17 15s-17-9-17-15c0-53-42-96-93-96-24 0-47 9-64 26-15 15-25 34-28 55h-7c-8 0-14 7-14 15s6 15 14 15h7c3 21 13 40 28 55 17 16 40 26 64 26 20 0 40-6 56-19 14-11 24-25 30-42 7 5 16 7 24 7s17-2 24-7c6 17 16 31 30 42 16 13 36 19 56 19 24 0 47-9 64-26 15-15 25-34 28-55h7z"/><glyph glyph-name="ion-ios-globe" unicode="" d="M208 400c115 0 208-93 208-208S323-16 208-16h-1C152-16 100 6 61 45S0 136 0 192s22 108 61 147 91 61 146 61h1zm180-194c-3 36-16 69-38 97-16-8-32-15-49-21 6-24 9-49 10-76h77zm-194 0v62c-18 1-36 3-53 7-5-21-8-45-9-69h62zm0-28h-62c1-24 4-48 9-69 17 4 35 6 53 7v62zm28 0v-62c18-1 35-3 52-7 5 21 8 45 9 69h-61zm0 28h61c-1 24-4 48-9 69-17-4-34-6-52-7v-62zm109 118c-19 17-40 31-64 39 10-15 19-34 26-55 13 4 26 10 38 16zm-64-23c-11 34-28 59-45 68v-74c15 1 30 3 45 6zm-73 68c-17-9-34-34-46-68 15-3 31-5 46-6v74zm-46-6c-24-8-45-22-63-39 12-6 24-12 37-16 7 21 16 41 26 55zm-82-60c-22-28-35-62-38-97h77c1 27 4 52 10 76-17 5-33 13-49 21zM28 178c3-36 15-69 37-97 16 8 33 15 50 21-6 24-9 49-10 76H28zM84 60c18-17 40-31 64-39-10 15-19 34-26 55-13-4-26-10-38-16zm64 23c12-34 29-59 46-68v74c-15-1-31-3-46-6zm74-68c17 9 34 34 45 68-15 3-30 5-45 6V15zm45 6c24 8 46 22 65 39-12 6-25 12-38 16-7-21-17-40-27-55zm83 60c22 28 35 61 38 97h-77c-1-27-4-52-10-76 17-6 33-13 49-21z"/><glyph glyph-name="ion-ios-grid" unicode="" horiz-adv-x="384" d="M142 140c-1 0-2 1-2 2v100c0 1 1 2 2 2h100c1 0 2-1 2-2V142c0-1-1-2-2-2H142zM0 352c0 18 14 32 32 32h320c18 0 32-14 32-32V32c0-18-14-32-32-32H32C14 0 0 14 0 32v320zm330-108c8 0 14 6 14 14s-6 14-14 14h-56c-1 0-2 1-2 2v56c0 8-6 14-14 14s-14-6-14-14v-56c0-1-1-2-2-2H142c-1 0-2 1-2 2v56c0 8-6 14-14 14s-14-6-14-14v-56c0-1-1-2-2-2H54c-8 0-14-6-14-14s6-14 14-14h56c1 0 2-1 2-2V142c0-1-1-2-2-2H54c-8 0-14-6-14-14s6-14 14-14h56c1 0 2-1 2-2V54c0-8 6-14 14-14s14 6 14 14v56c0 1 1 2 2 2h100c1 0 2-1 2-2V54c0-8 6-14 14-14s14 6 14 14v56c0 1 1 2 2 2h56c8 0 14 6 14 14s-6 14-14 14h-56c-1 0-2 1-2 2v100c0 1 1 2 2 2h56z"/><glyph glyph-name="ion-ios-hammer" unicode="" d="M229 201c4-9 3-18-3-25-6-6-19-18-39-38C147 98 97 41 68 6c-6-7-17-8-24-1L5 44c-7 7-6 18 1 24 34 29 92 78 132 118l39 39s15 8 23 4c2-1 5-2 7-4l18-18c2-2 3-4 4-6zm185 29c2-2 2-6 0-8l-56-55c-1-1-3-2-4-2-2 0-3 1-4 2l-34 34c-2 2-2 6 0 8l2 2c7 6 6 17 0 24-1 1-2 1-3 2-4 2-13 5-23 5-4 0-9-1-13-2-9-2-17-9-31-23-3-3-9-3-12 0l-19 20c-3 3-3 8 0 11 15 17 20 28 19 45-1 23-15 40-31 53-10 8-29 10-45 10-10 0-19 0-23-1h-3c-8 0-3 9 3 14 7 7 29 15 55 15 14 0 30-2 47-9 47-19 75-46 82-53s18-18 24-27-2-22 5-29c3-3 8-5 12-5s8 1 10 3c1 1 3 2 4 2 2 0 3-1 4-2z"/><glyph glyph-name="ion-ios-hand" unicode="" horiz-adv-x="320" d="M299 331c12 0 21-10 21-21V77c0-55-32-93-78-93h-58L144-5C101 20 50 91 31 113c-20 22-39 41-27 53 18 17 40 7 66-16l28-24v219c0 11 9 20 21 20s21-9 21-20V218c0-5 4-9 9-9s9 4 9 9v161c0 11 9 21 21 21s21-10 21-21V235c0-5 4-8 9-8s9 3 9 8v127c0 11 9 21 21 21s21-10 21-21V201c0-5 4-9 9-9s9 4 9 9v109c0 11 9 21 21 21z"/><glyph glyph-name="ion-ios-happy" unicode="" d="M208 400c115 0 208-93 208-208S323-16 208-16 0 77 0 192s93 208 208 208zm72-152c-13 0-24-11-24-24s11-24 24-24 24 11 24 24-11 24-24 24zm-144 0c-13 0-24-11-24-24s11-24 24-24 24 11 24 24-11 24-24 24zm72-169c45 0 82 30 94 71 2 5-3 10-8 10H122c-5 0-10-5-8-10 12-41 49-71 94-71z"/><glyph glyph-name="ion-ios-headset" unicode="" horiz-adv-x="448" d="M224 324c24 0 47-10 64-28s26-34 26-60c0-8-6-14-13-14s-13 6-13 14c0 17-7 33-19 44s-28 16-45 16-33-5-45-16-19-27-19-44c0-8-6-14-13-14s-13 6-13 14c0 26 9 42 26 60s40 28 64 28zm201-155c15-15 23-34 23-55v-12c0-21-8-40-23-55s-34-23-55-23h-6c-4 0-7-1-10-4-2-2-6-4-10-4-8 0-14 6-14 14v204c0 28-11 55-31 75s-47 31-75 31-55-11-75-31-31-47-31-75V30c0-8-6-14-14-14-4 0-8 2-10 4-3 3-6 4-10 4h-6c-21 0-40 8-55 23S0 81 0 102v12c0 21 8 40 23 55s34 23 55 23h8c2 0 4 2 4 4v38c0 36 14 70 39 95s59 39 95 39 70-14 95-40c25-25 39-58 39-94v-38c0-2 2-4 4-4h8c21 0 40-8 55-23z"/><glyph glyph-name="ion-ios-heart-dislike" unicode="" horiz-adv-x="448" d="M392 21c6-6 6-14 0-20-2-2-5-2-7-3-5-1-9-1-13 3L4 363c-6 6-6 14 0 20s14 6 20 0zM32 279c0 10 1 20 4 30L306 44c-36-31-66-52-66-52S139 64 79 146c-32 43-47 96-47 133zm370-133c-16-22-33-42-52-61L68 362c20 18 47 30 76 30h1c40 0 75-21 95-52 20 31 55 52 95 52h1c62-1 112-51 112-113 0-37-14-90-46-133z"/><glyph glyph-name="ion-ios-heart-empty" unicode="" d="M304 392c62-1 112-51 112-113 0-37-16-90-48-133C308 64 208-8 208-8S108 64 48 146C16 189 0 242 0 279c0 62 50 112 112 113h1c40 0 75-21 95-52 20 31 55 52 95 52h1zm42-229c29 40 42 87 42 116 0 22-8 44-24 60s-38 25-60 25h-1c-14 0-28-4-41-11-12-7-22-16-30-28-5-8-14-13-24-13s-18 5-23 13c-8 12-19 21-31 28-13 7-27 11-41 11h-1c-23 0-43-9-59-25s-25-37-25-60c0-29 13-76 42-116 43-58 108-112 138-136 30 24 95 78 138 136z"/><glyph glyph-name="ion-ios-heart-half" unicode="" d="M304 392c62-1 112-51 112-113 0-37-16-90-48-133C308 64 208-8 208-8S108 64 48 146C16 189 0 242 0 279c0 62 50 112 112 113h1c40 0 75-21 95-52 20 31 55 52 95 52h1zm42-229c29 40 42 87 42 116 0 22-8 44-24 60s-38 25-60 25h-1c-14 0-28-4-41-11-12-7-22-16-30-28l-1-1c-15-22-23-48-23-75V44c0-7 8-10 13-6 33 27 88 74 125 125z"/><glyph glyph-name="ion-ios-heart" unicode="" d="M304 392c62-1 112-51 112-113 0-37-16-90-48-133C308 64 208-8 208-8S108 64 48 146C16 189 0 242 0 279c0 62 50 112 112 113h1c40 0 75-21 95-52 20 31 55 52 95 52h1z"/><glyph glyph-name="ion-ios-help-buoy" unicode="" d="M208 400c115 0 208-93 208-208S323-16 208-16 0 77 0 192s93 208 208 208zm55-36l-6-89c14-8 26-20 34-34l89 6c-9 27-24 51-45 72s-45 36-72 45zM81 319c-21-21-36-45-45-72l89-6c8 14 20 26 34 34l-6 89c-27-9-51-24-72-45zm72-299l6 89c-14 8-26 20-34 34l-89-6c9-27 24-51 45-72s45-36 72-45zm55 104c38 0 68 30 68 68s-30 68-68 68-68-30-68-68 30-68 68-68zm127-59c21 21 36 46 45 73l-89 6c-8-14-20-27-34-35l6-89c27 9 51 24 72 45z"/><glyph glyph-name="ion-ios-help-circle-outline" unicode="" d="M208 372c-48 0-93-19-127-53s-53-79-53-127S47 99 81 65s79-53 127-53 93 19 127 53 53 79 53 127-19 93-53 127-79 53-127 53zm0 28c115 0 208-93 208-208S323-16 208-16 0 77 0 192s93 208 208 208zm1-112c38 0 63-21 63-51 0-20-10-33-28-44-17-10-23-17-23-30v-8h-35v8c-2 21 5 33 23 44 17 10 24 17 24 29s-12 22-27 22-25-10-26-25h-36c1 32 25 55 65 55zm-27-171c0 12 10 20 22 20s21-8 21-20-9-21-21-21-22 9-22 21z"/><glyph glyph-name="ion-ios-help-circle" unicode="" d="M208 400c115 0 208-93 208-208S323-16 208-16 0 77 0 192s93 208 208 208zm-4-304c12 0 21 9 21 21s-9 20-21 20-22-8-22-20 10-21 22-21zm40 97c18 11 28 24 28 44 0 30-25 51-63 51-40 0-64-23-65-55h36c1 15 11 25 26 25s27-10 27-22-7-19-24-29c-18-11-25-23-23-44v-8h35v8c0 13 6 20 23 30z"/><glyph glyph-name="ion-ios-help" unicode="" horiz-adv-x="128" d="M65 288c38 0 63-21 63-51 0-20-10-33-28-44-17-10-23-17-23-30v-8H42v8c-2 21 5 33 23 44 17 10 24 17 24 29s-12 22-27 22-25-10-26-25H0c1 32 25 55 65 55zM38 117c0 12 10 20 22 20s21-8 21-20-9-21-21-21-22 9-22 21z"/><glyph glyph-name="ion-ios-home" unicode="" d="M211 344l156-125c1-1 1-2 1-3V-14c0-1-1-2-2-2H258c-1 0-2 1-2 2v140c0 1-1 2-2 2h-92c-1 0-2-1-2-2V-14c0-1-1-2-2-2H50c-1 0-2 1-2 2v230c0 1 1 2 2 3l156 125c2 1 3 1 5 0zm200-100c3-2 5-6 5-10s-1-8-4-11-6-4-10-4c-3 0-7 1-9 3L209 369l-1 1-1-1L23 221c-2-2-6-3-9-3-4 0-7 1-10 4s-4 7-4 11 2 8 5 10l43 35v92c0 1 1 2 2 2h60c1 0 2-1 2-2v-42l82 67c4 3 9 5 14 5s10-2 14-5z"/><glyph glyph-name="ion-ios-hourglass" unicode="" horiz-adv-x="348" d="M334 14c8 0 14-5 14-13s-6-15-14-15H14C6-14 0-7 0 1s6 13 14 13h6c6 0 11 1 12 7v1c14 136 100 138 100 170S47 226 32 362v1c-1 6-6 7-12 7h-6c-8 0-14 7-14 15s6 13 14 13h320c8 0 14-7 14-15s-6-13-14-13h-5c-6 0-12-1-13-7v-1c-14-136-100-138-100-170s85-34 100-170v-1c1-6 7-7 13-7h5zM81 48c-3-7-1-16 7-16h172c8 0 10 9 7 16-31 79-80 71-80 102v55c0 19 37 33 60 65 4 5 0 12-6 12H108c-6 0-11-7-7-12 23-32 60-46 60-65v-55c0-32-51-22-80-102z"/><glyph glyph-name="ion-ios-ice-cream" unicode="" horiz-adv-x="288" d="M109 42c0 2 1 3 3 2l12-7c2-2 2-5 0-7l-7-4c-1-1-3 0-3 1zm66-15c0-1-2-2-3-1l-7 4c-2 2-2 5 0 7l12 7c2 1 4 0 3-2zM77 206c2 1 3 1 5 0 10-9 22-16 36-19 4-1 5-5 2-7l-37-23-7-4c-1-1-3 0-3 1l-4 12-9 29c0 1 0 2 1 2 6 2 12 5 16 9zm4-69c1 1 3 1 4 0l39-24c2-2 2-5 0-7L96 90c-1-1-3 0-3 1l-14 45zm65-38l42-26c1-1 1-2 0-3l-42-26c-1-1-3-1-4 0l-41 26h-1c-1 1-1 2 0 3v1l42 25c1 1 3 1 4 0zm39 52c2-2 2-4 0-6l-39-24c-1-1-3-1-4 0l-38 24c-2 2-2 4 0 6l38 24c1 1 3 1 4 0zm21 55c2 1 4 1 6 0 4-4 11-7 18-9l-10-31-4-12c0-1-2-2-3-1l-7 4-37 23c-3 2-3 6 1 7 14 3 26 10 36 19zM121 6c-1 2-1 3 1 4l20 13c1 1 3 1 4 0l20-13c2-1 3-2 2-4l-2-5s-7-19-22-19c-14 0-22 19-22 19zm44 100c-3 2-3 5 0 7l39 24c1 1 3 1 4 0h1c1 0 1-2 1-3l-15-44c0-1-2-2-3-1zm99 174c3 3 7 3 10 0 8-7 14-18 14-30 0-22-18-40-40-40-11 0-29 4-37 12-2 1-3 1-5 0-15-13-36-20-62-20s-47 7-62 20c-2 1-3 1-5 0-9-8-26-12-37-12-22 0-40 18-40 40 0 13 7 25 17 32 2 1 4 1 5 0 7-7 15-11 20-13 2-1 3 1 2 3l-4 6c-6 9-8 19-6 29 9 54 54 95 110 95s102-41 111-94c2-10-1-21-7-30l-4-6c-1-2 0-4 2-3 5 2 12 6 18 11z"/><glyph glyph-name="ion-ios-image" unicode="" d="M65 136c-4 0-8 4-5 8l95 154c2 3 7 3 9 0l96-154c3-4-1-8-5-8H65zm194 58c-1 2-1 4 0 6l26 32c2 3 7 3 9 0l62-88c3-4-1-8-5-8h-53c-2 0-3 0-4 2zm44 86c-18-2-33 13-31 31 1 13 12 24 25 25 18 2 33-13 31-31-1-13-12-24-25-25zm81 120c18 0 32-14 32-32V16c0-18-14-32-32-32H32C14-16 0-2 0 16v352c0 18 14 32 32 32h352zm-3-280v237c0 4-4 8-8 8H43c-4 0-8-4-8-8V120c0-4 4-8 8-8h330c4 0 8 4 8 8z"/><glyph glyph-name="ion-ios-images" unicode="" horiz-adv-x="448" d="M230 249l70-136c2-3-1-7-5-7l-161 14c-4 0-5 4-3 7l92 123c2 2 5 2 7-1zm105-65l46-78c2-3-1-8-5-8l-45 4c-2 0-2 2-3 3l-26 49c-1 2 0 4 1 6l25 25c2 2 5 2 7-1zm11 40c-15 0-27 13-24 28 2 11 12 19 23 19 15 0 27-13 24-28-2-11-12-19-23-19zm77 95c15-1 26-15 25-30L422-7c-1-15-14-26-29-25L95-6C80-5 70 8 71 23l1 17-16-1c-15-1-28 9-29 24L0 360c-1 15 10 28 25 29l297 27c15 1 28-10 29-25l6-67zM56 147l26 3 15 170c1 15 14 26 29 25l202-18-5 53c0 4-3 6-7 6L36 361c-4 0-6-4-6-8l18-200c0-4 4-6 8-6zm362 136c0 4-2 7-6 7l-52 5-30 2-198 17c-4 0-7-2-7-6l-14-156-3-44c0-4 2-7 6-7l260-23 19-1c4 0 7 2 7 6z"/><glyph glyph-name="ion-ios-infinite" unicode="" horiz-adv-x="464" d="M433 266c20-20 31-46 31-74s-12-54-32-74-47-30-75-30-55 10-75 30L157 241c-14 13-32 20-51 20s-36-7-50-20c-13-13-21-31-21-49s8-36 21-49c14-13 31-20 50-20s37 7 51 20l31 30c2 2 3 2 5 0l20-19c2-2 2-4 0-6l-31-30c-20-20-48-30-76-30s-55 10-75 30-31 46-31 74 11 54 31 74 47 30 75 30 56-10 76-30l125-123c14-13 32-20 51-20s36 7 50 20c13 13 20 31 20 49s-7 36-20 49c-14 13-31 20-50 20s-37-7-51-20l-31-30c-2-2-3-2-5 0l-20 19c-2 2-2 4 0 6l31 30c20 20 48 30 76 30s55-10 75-30z"/><glyph glyph-name="ion-ios-information-circle-outline" unicode="" d="M187 276c0 11 10 20 21 20s21-9 21-20-10-20-21-20-21 9-21 20zm2-36h38V96h-38v144zm19 132c-48 0-93-19-127-53s-53-79-53-127S47 99 81 65s79-53 127-53 93 19 127 53 53 79 53 127-19 93-53 127-79 53-127 53zm0 28c115 0 208-93 208-208S323-16 208-16 0 77 0 192s93 208 208 208z"/><glyph glyph-name="ion-ios-information-circle" unicode="" d="M208 400c115 0 208-93 208-208S323-16 208-16 0 77 0 192s93 208 208 208zm19-304v144h-38V96h38zm-19 160c11 0 21 9 21 20s-10 20-21 20-21-9-21-20 10-20 21-20z"/><glyph glyph-name="ion-ios-information" unicode="" horiz-adv-x="41" d="M0 272c0 11 9 20 20 20s21-9 21-20-10-20-21-20-20 9-20 20zm1-36h39V92H1v144z"/><glyph glyph-name="ion-ios-jet" unicode="" d="M416 400s-1-19-27-53c-12-15-121-162-121-162l8-160-36-41-52 102-10-8-4-82-33-6-48 60-53-26 26 53-60 48 6 33 82 4 8 10L0 224l41 36 160-8s146 109 162 121c33 26 53 27 53 27z"/><glyph glyph-name="ion-ios-journal" unicode="" horiz-adv-x="384" d="M28 416h228V32H48c-9 0-17-8-16-18 1-8 8-14 16-14h320c9 0 16-7 16-16s-7-16-16-16H28C12-32 0-20 0-4v392c0 16 12 28 28 28zM368 32h-64v384h52c16 0 28-12 28-28V48c0-9-7-16-16-16z"/><glyph glyph-name="ion-ios-key" unicode="" d="M297 230c66 0 119-54 119-122S363-16 297-16 178 40 178 108c0 18 2 32 9 48-3 5-9 11-10 17-1 5 7 25 6 30s-8 10-11 11c-9 2-25-11-31-10s-21 14-22 24 15 24 5 34-21-3-30-3c-7 0-11 4-16 9-6 6-9 11-9 19s4 18 3 24-2 9-10 12-27-7-36 3c-6 6-10 9-25 24-5 5 21 33 28 40 5 4 13 10 21 10 5 0 10-2 15-7 10-11 143-124 194-167 12 4 25 4 38 4zm23-182c18 0 32 14 32 32s-14 32-32 32-32-14-32-32 14-32 32-32z"/><glyph glyph-name="ion-ios-keypad" unicode="" horiz-adv-x="384" d="M331 107c30 0 53-24 53-54S361 0 331 0s-54 23-54 53 24 54 54 54zm-139 0c30 0 53-24 53-54S222 0 192 0s-53 23-53 53 23 54 53 54zm-139 0c30 0 54-24 54-54S83 0 53 0 0 23 0 53s23 54 53 54zm278 138c30 0 53-23 53-53s-23-53-53-53-54 23-54 53 24 53 54 53zm-139 0c30 0 53-23 53-53s-23-53-53-53-53 23-53 53 23 53 53 53zm-139 0c30 0 54-23 54-53s-24-53-54-53-53 23-53 53 23 53 53 53zm278 139c30 0 53-23 53-53s-23-54-53-54-54 24-54 54 24 53 54 53zm-139 0c30 0 53-23 53-53s-23-54-53-54-53 24-53 54 23 53 53 53zm-139 0c30 0 54-23 54-53s-24-54-54-54-53 24-53 54 23 53 53 53z"/><glyph glyph-name="ion-ios-laptop" unicode="" horiz-adv-x="480" d="M432 80h48c0-10-10-19-20-23s-28-9-48-9H68c-20 0-38 5-49 10-9 4-19 12-19 22h48v239c0 10 8 17 17 17h350c9 0 17-8 17-17V80zM240 328c-2 0-4-2-4-4s2-4 4-4 4 2 4 4-2 4-4 4zM66 312c-1 0-2-1-2-2V98c0-1 1-2 2-2h348c1 0 2 1 2 2v212c0 1-1 2-2 2H66zM282 72c7 0 10 6 10 8H188c0-2 5-8 10-8h84z"/><glyph glyph-name="ion-ios-leaf" unicode="" d="M406 69c17-3 10-39-5-37 0 0-20 1-62 14 0 0-15-23-38-34-25-12-117-33-195 38C0 147-12 404 8 383c85-90 194-47 266-106 54-44 92-122 76-196 0 0 4-4 56-12zm-92-7c5 5 10 16 10 24-84 28-151 72-194 108-4 3-9-2-5-6 44-45 111-103 189-126z"/><glyph glyph-name="ion-ios-link" unicode="" d="M232 107c15 1 23-17 13-27l-66-65c-20-20-46-31-74-31S51-5 31 15 0 61 0 89s10 55 30 75l69 68c8 8 18 15 28 20 6 3 12 5 19 7 1 0 3 1 4 1 5 1 11 3 16 3h7c4 0 7-1 11-1h6c22-4 42-14 58-30 12-12 20-25 24-41 2-8-2-17-10-19h-1c-8-2-16 2-19 10-4 10-9 19-17 27-12 12-29 20-47 21h-15c-5-1-10-2-15-4s-9-4-14-7c-4-3-8-6-12-10l-68-68c-14-14-22-32-22-52s8-37 22-51 31-22 51-22 38 8 52 22l64 64c3 2 6 5 10 5h1zm153 262c20-20 31-46 31-74s-10-55-30-75l-69-68c-8-8-18-15-28-20-6-3-12-5-19-7-6-2-14-3-20-3-3 0-4-1-7-1-4 0-7 1-11 1-24 2-47 13-64 30-12 12-20 24-24 38-3 9 3 18 12 20 8 2 16-2 19-10 4-10 9-18 16-25 12-12 29-20 47-21h15c5 1 10 2 15 4s9 5 14 8c4 3 8 5 12 9l68 68c14 14 22 32 22 52s-8 37-22 51-31 22-51 22-37-8-51-22l-64-63c-3-3-8-5-13-5-14 1-20 18-10 28l64 63c20 20 46 31 74 31s54-11 74-31z"/><glyph glyph-name="ion-ios-list-box" unicode="" d="M0 365c0 19 16 35 35 35h346c19 0 35-16 35-35V19c0-19-16-35-35-35H35C16-16 0 0 0 19v346zM89 68c9 1 16 8 17 17 2 13-9 25-22 23-9-1-16-8-17-17-2-13 9-25 22-23zm0 104c9 1 16 8 17 17 2 13-9 25-22 23-9-1-16-8-17-17-2-13 9-25 22-23zm0 104c9 1 16 8 17 17 2 13-9 25-22 23-9-1-16-8-17-17-2-13 9-25 22-23zM337 74c8 0 14 6 14 14s-6 14-14 14H157c-8 0-14-6-14-14s6-14 14-14h180zm0 104c8 0 14 6 14 14s-6 14-14 14H157c-8 0-14-6-14-14s6-14 14-14h180zm0 104c8 0 14 6 14 14s-6 14-14 14H157c-8 0-14-6-14-14s6-14 14-14h180z"/><glyph glyph-name="ion-ios-list" unicode="" horiz-adv-x="384" d="M0 192c0 15 13 28 28 28s28-13 28-28-13-28-28-28-28 13-28 28zm0 124c0 15 13 28 28 28s28-13 28-28-13-28-28-28-28 13-28 28zM0 68c0 15 13 28 28 28s28-13 28-28-13-28-28-28S0 53 0 68zm368 140c9 0 16-7 16-16s-7-16-16-16H128c-9 0-16 7-16 16s7 16 16 16h240zm0-124c9 0 16-7 16-16s-7-16-16-16H128c-9 0-16 7-16 16s7 16 16 16h240zM128 300c-9 0-16 7-16 16s7 16 16 16h240c9 0 16-7 16-16s-7-16-16-16H128z"/><glyph glyph-name="ion-ios-locate" unicode="" horiz-adv-x="415" d="M347 189c0 1-1 2-1 3s1 2 1 3c0-1-1-1-1-2s1-3 1-4zm64-11c2 0 4-2 4-4C406 74 326-6 226-15c-2 0-5 2-5 4v50c0 8-5 14-13 14s-15-6-15-14v-50c0-2-2-4-4-4C89-6 9 74 0 174c0 2 2 4 4 4h50c8 0 14 5 14 13s-6 15-14 15H4c-2 0-4 2-4 4 9 100 89 180 189 189 2 0 4-2 4-4v-50c0-8 6-14 14-14s14 6 14 14v50c0 2 3 4 5 4 100-9 180-89 189-189 0-2-2-4-4-4h-50c-7 0-13-5-14-11 0-1-1-2-1-3s1-2 1-3c1-6 6-11 13-11h51zm-204-56c39 0 70 31 70 70s-31 70-70 70-70-31-70-70 31-70 70-70z"/><glyph glyph-name="ion-ios-lock" unicode="" horiz-adv-x="320" d="M280 256c22 0 40-18 40-40V24c0-22-18-40-40-40H40C18-16 0 2 0 24v192c0 22 18 40 40 40h24v48c0 53 44 97 97 96s95-44 95-97v-47h24zM174 131c11 5 18 16 18 29 0 18-15 33-34 32-16-1-29-13-30-29-1-14 6-26 18-32V62c0-8 7-14 15-14s13 6 13 14v69zm54 125v48c0 18-7 35-20 48s-30 20-48 20-35-7-48-20-20-30-20-48v-48h136z"/><glyph glyph-name="ion-ios-log-in" unicode="" horiz-adv-x="414" d="M368 368c25 0 46-21 46-46V62c0-25-21-46-46-46H88c-25 0-46 21-46 46 0 8 6 14 14 14s14-6 14-14c0-10 8-18 18-18h280c10 0 18 8 18 18v260c0 10-8 18-18 18H88c-10 0-18-8-18-18 0-8-6-14-14-14s-14 6-14 14c0 25 21 46 46 46h280zM175 114l64 64H14c-8 0-14 6-14 14s6 14 14 14h224l-65 64c-6 6-6 14 0 20 3 3 6 4 10 4s7-1 10-4l84-84c4-4 7-10 7-15s-3-11-7-15l-82-82c-3-3-6-4-10-4s-7 2-10 4c-5 6-5 15 0 20z"/><glyph glyph-name="ion-ios-log-out" unicode="" d="M264 76c8 0 14-6 14-14 0-25-21-46-46-46H46C21 16 0 37 0 62v260c0 25 21 46 46 46h186c25 0 46-21 46-46 0-8-6-14-14-14s-14 6-14 14c0 10-8 18-18 18H46c-10 0-18-8-18-18V62c0-10 8-18 18-18h186c10 0 18 8 18 18 0 8 6 14 14 14zm61 214l84-84c4-4 7-10 7-15s-3-11-7-15l-82-82c-3-3-6-4-10-4s-7 2-10 4c-5 6-5 15 0 20l64 64H114c-8 0-14 6-14 14s6 14 14 14h256l-65 64c-6 6-6 14 0 20 3 3 6 4 10 4s7-1 10-4z"/><glyph glyph-name="ion-ios-magnet" unicode="" d="M414 186c2-2 2-6 0-8l-57-58c-2-2-7-2-9 0L185 283c-13 13-28 20-42 22s-26-2-36-12-15-23-13-37 10-28 23-41L280 52c2-2 2-7 0-9l-58-57c-1-1-2-2-4-2s-3 1-4 2L41 158C14 185 0 220 0 258s14 74 41 101 63 41 101 41 73-14 100-41zM228 68l-30-30 20-20 30 30zm124 84l30 30-20 20-30-30z"/><glyph glyph-name="ion-ios-mail-open" unicode="" d="M406 238c4-4 10-13 10-25V0c0-18-14-32-32-32H32C14-32 0-18 0 0v212c0 11 5 21 10 26s159 162 159 162c10 11 24 16 39 16s29-5 39-16c0 0 155-158 159-162zm-20-42c10 10 0 36-16 36H46s-26-26-16-36l81-85c1-1 1-2 0-3L36 28c-5-5-5-13 0-18 2-2 6-4 9-4s7 2 9 4l151 161c2 2 4 2 6 0L362 10c2-2 6-4 9-4s7 2 9 4c5 5 5 13 0 18l-75 80c-1 1-1 2 0 3z"/><glyph glyph-name="ion-ios-mail-unread" unicode="" d="M320 296c0 27 21 48 48 48s48-21 48-48-21-48-48-48-48 21-48 48zm48-66c19 0 36 7 48 20V72c0-18-14-32-32-32H32C14 40 0 54 0 72v219c0 2 2 3 3 2l108-110c1-1 1-2 0-3l-75-80c-5-5-5-13 0-18 2-2 6-4 9-4s7 2 9 4l75 80c1 1 2 1 3 0l18-18c16-16 36-25 58-25s43 8 58 24l18 19c1 1 2 1 3 0l75-80c2-2 6-4 9-4s7 2 9 4c5 5 5 13 0 18l-75 80c-1 1-1 2 0 3l47 48c5-1 11-1 16-1zm-66 66c0-22 10-41 26-53l-81-82c-10-11-24-16-39-16s-29 5-39 16L12 321c5 4 12 7 20 7h278c-5-10-8-20-8-32z"/><glyph glyph-name="ion-ios-mail" unicode="" d="M413 301c1 1 3 0 3-2V80c0-18-14-32-32-32H32C14 48 0 62 0 80v219c0 2 2 3 3 2l108-110c1-1 1-2 0-3l-75-80c-5-5-5-13 0-18 2-2 6-4 9-4s7 2 9 4l75 80c1 1 2 1 3 0l18-18c16-16 36-25 58-25s43 8 58 24l18 19c1 1 2 1 3 0l75-80c2-2 6-4 9-4s7 2 9 4c5 5 5 13 0 18l-75 80c-1 1-1 2 0 3zM208 153c-15 0-29 6-39 16L12 329c5 4 12 7 20 7h352c8 0 14-3 20-7L247 169c-10-11-24-16-39-16z"/><glyph glyph-name="ion-ios-male" unicode="" d="M402 400c8 0 14-6 14-14V278c0-8-6-14-14-14s-13 6-13 14v75l-91-90c26-31 40-70 40-110 0-23-4-45-13-66-8-20-20-37-36-53S255 5 235-3c-21-9-43-13-66-13s-45 4-66 13C83 5 66 18 50 34S21 67 13 87c-9 21-13 43-13 66s4 45 13 66c8 20 21 38 37 54s33 28 53 36c21 9 43 13 66 13 40 0 79-14 110-40l90 91h-75c-8 0-14 5-14 13s6 14 14 14h108zm-91-247c0 38-15 73-42 100s-62 42-100 42-73-15-100-42-42-62-42-100S42 80 69 53s62-42 100-42 73 15 100 42 42 62 42 100z"/><glyph glyph-name="ion-ios-man" unicode="" horiz-adv-x="228" d="M114 341c-25 0-46 21-46 46s21 45 46 45 45-20 45-45c0-12-4-24-13-32-8-9-20-14-32-14zM79-48c-14 0-27 10-27 30l1 278H43V155c0-9-3-15-6-18-4-4-9-7-15-7s-12 3-16 7c-3 3-6 9-6 18v122c0 14 5 27 14 38 10 12 24 18 39 18h122c15 0 29-6 39-18 9-11 14-24 14-38V155c0-7-2-14-7-18-4-4-9-7-15-7s-12 3-16 7c-5 4-6 11-6 18v105h-9V-18c0-20-14-30-28-30-13 0-26 10-27 30v141h-12V-18c-1-20-15-30-29-30z"/><glyph glyph-name="ion-ios-map" unicode="" horiz-adv-x="384" d="M0 376c0 7 7 11 12 7l70-51c2-2 3-4 3-7V9c0-7-7-11-12-7L4 52c-2 2-4 4-4 7v317zm105-51c0 3 1 5 3 7l62 36c5 4 12 0 12-7V45c0-3-1-5-3-7L117 1c-5-4-12 0-12 7v317zm267 57c5 4 12 1 12-6V59c0-3-2-5-4-7L311 2c-5-4-12 0-12 7v316c0 3 1 5 3 7zm-170-20c0 7 7 11 12 7l62-37c2-2 3-4 3-7V9c0-7-7-11-12-7l-62 37c-2 2-3 4-3 7v316z"/><glyph glyph-name="ion-ios-medal" unicode="" d="M2 324h126c1 0 2-1 2-2V204c0-1-2-2-3-2L23 231c-14 4-23 17-23 31v60c0 1 1 2 2 2zm206-158zm-52 156c0 1 1 2 2 2h106c1 0 2-1 2-2V198c0-1 0-2-1-2l-56-16h-1l-50 14c-1 0-2 1-2 2v126zm130 0c0 1 1 2 2 2h126c1 0 2-1 2-2v-60c0-14-9-27-23-31l-104-30c-1 0-3 1-3 2v119zM0 384c0 18 14 32 32 32h352c18 0 32-14 32-32v-38c0-1-1-2-2-2H2c-1 0-2 1-2 2v38zm208-244zm-56-44c0 31 25 56 56 56s56-25 56-56-25-56-56-56-56 25-56 56zm151 85c20-23 33-52 33-85 0-71-57-128-128-128S80 25 80 96c0 33 13 63 33 86l51-14c-24-15-40-42-40-72 0-46 38-84 84-84s84 38 84 84c0 30-16 57-40 72zm-95-29c31 0 56-25 56-56s-25-56-56-56-56 25-56 56 25 56 56 56z"/><glyph glyph-name="ion-ios-medical" unicode="" horiz-adv-x="353" d="M351 274c4-7 1-17-6-21l-99-57c-3-2-3-5 0-7l99-57c7-4 10-15 6-22l-17-28c-4-7-14-10-21-6l-99 57c-3 2-6 0-6-3V15c0-9-6-15-15-15h-33c-9 0-16 6-16 15v115c0 3-3 5-6 3L40 76c-7-4-17-1-21 6L2 110c-4 7-1 17 6 21l98 57c3 2 3 5 0 7L8 252c-7 4-10 15-6 22l17 28c4 7 14 10 21 6l98-57c3-2 6 0 6 3v114c0 9 7 16 16 16h33c9 0 15-7 15-16V254c0-3 3-5 6-3l99 57c7 4 17 1 21-6z"/><glyph glyph-name="ion-ios-medkit" unicode="" d="M384 320c18 0 32-14 32-32V32c0-18-14-32-32-32H32C14 0 0 14 0 32v256c0 18 14 32 32 32h84v32c0 18 14 32 32 32h120c18 0 32-14 32-32v-32h84zm-240 28v-28h128v28c0 4-4 8-8 8H152c-4 0-8-4-8-8zm128-204c9 0 16 7 16 16s-7 16-16 16h-48v48c0 9-7 16-16 16s-16-7-16-16v-48h-48c-9 0-16-7-16-16s7-16 16-16h48V96c0-9 7-16 16-16s16 7 16 16v48h48z"/><glyph glyph-name="ion-ios-megaphone" unicode="" d="M42 261c0-27 14-54 34-72 3-3 0-8-4-7-27 9-54 30-61 64-6 0-11 7-11 15s4 14 10 15c6 39 36 70 74 70 3 0 5-4 2-6-26-16-44-46-44-79zm360 84c9-23 14-52 14-82s-5-58-14-81c-1-3-2-5-3-8-6-13-12-24-21-33-16-16-29-18-35-18s-11 2-20 5c-38 14-64 32-112 32-26 0-16-97-16-132s4-44-14-44-61 16-68 24-6 18-4 36 23 102 25 115-9 12-21 22c-27 16-44 46-44 80 0 38 22 71 54 85h40c42 0 111 20 154 46 4 3 12 8 26 8 13 0 24-5 34-15 8-8 16-19 22-32 1-2 2-5 3-8zm-26-157c8 18 14 45 14 75s-6 57-14 75c-6 16-18 25-27 25s-18-9-24-25c-8-18-13-45-13-75s5-57 13-75c6-16 15-28 24-28s21 12 27 28z"/><glyph glyph-name="ion-ios-menu" unicode="" horiz-adv-x="384" d="M368 272H16c-9 0-16 7-16 16s7 16 16 16h352c9 0 16-7 16-16s-7-16-16-16zm0-96H16c-9 0-16 7-16 16s7 16 16 16h352c9 0 16-7 16-16s-7-16-16-16zm0-96H16C7 80 0 87 0 96s7 16 16 16h352c9 0 16-7 16-16s-7-16-16-16z"/><glyph glyph-name="ion-ios-mic-off" unicode="" horiz-adv-x="256" d="M242-16c-5 0-9 3-12 7L2 379c-4 7-2 15 5 19s16 2 20-5L254 5c4-7 2-15-5-19-2-1-5-2-7-2zm-50 192c0-9-2-17-5-25L67 356c8 26 33 44 61 44 35 0 64-29 64-64V176zm-128 0v65l75-128c-4-1-7-1-11-1-35 0-64 29-64 64zm174-3c0-26-9-49-24-68l-15 26c7 12 11 27 11 42v69c0 8 6 14 14 14s14-6 14-14v-69zM128 91c8 0 15 1 22 3l15-25c-7-3-15-4-23-5V12h36c8 0 14-6 14-14s-6-14-14-14H78c-8 0-14 6-14 14s6 14 14 14h36v52c-54 7-96 53-96 109v69c0 8 6 14 14 14s14-6 14-14v-69c0-45 37-82 82-82z"/><glyph glyph-name="ion-ios-mic" unicode="" horiz-adv-x="220" d="M110 112c-35 0-64 29-64 64v160c0 35 29 64 64 64s64-29 64-64V176c0-35-29-64-64-64zm96 144c8 0 14-6 14-14v-69c0-56-42-102-96-109V12h36c8 0 14-6 14-14s-6-14-14-14H60c-8 0-14 6-14 14s6 14 14 14h36v52C42 71 0 117 0 173v69c0 8 6 14 14 14s14-6 14-14v-69c0-45 37-82 82-82s82 37 82 82v69c0 8 6 14 14 14z"/><glyph glyph-name="ion-ios-microphone" unicode="" horiz-adv-x="288" d="M203 244c-7 0-12-5-12-12s5-12 12-12h73c7 0 12-5 12-12s-5-12-12-12h-73c-7 0-12-5-12-12s5-12 12-12h77c4 0 8-4 8-8 0-14-3-27-8-39-1-3-4-5-7-5H15c-3 0-6 2-7 5-5 12-8 25-8 39 0 4 4 8 8 8h77c7 0 12 5 12 12s-5 12-12 12H12c-7 0-12 5-12 12s5 12 12 12h73c7 0 12 5 12 12s-5 12-12 12H12c-7 0-12 5-12 12s5 12 12 12h73c7 0 12 5 12 12s-5 12-12 12H8c-4 0-8 4-8 8 2 47 31 88 73 106 5 2 11-1 11-7v-36c0-7 5-12 12-12s12 5 12 12v41c0 7 5 12 12 12s12-5 12-12v-57c0-7 5-12 12-12s12 5 12 12v57c0 7 5 12 12 12s12-5 12-12v-41c0-7 5-12 12-12s12 5 12 12v36c0 6 6 9 11 7 42-18 71-58 73-106 0-4-4-8-8-8h-77c-7 0-12-5-12-12s5-12 12-12h73c7 0 12-5 12-12s-5-12-12-12h-73zM30 89c-2 3 0 7 3 7h222c3 0 6-4 4-7-19-22-46-36-76-40-4 0-7-4-7-8V0c0-18-14-32-32-32s-32 14-32 32v41c0 4-3 8-7 8-30 4-56 18-75 40z"/><glyph glyph-name="ion-ios-moon" unicode="" horiz-adv-x="352" d="M321 94c9 0 18 0 26 2 3 1 6-3 4-6-5-8-10-15-16-22-35-42-87-68-145-68C85 0 0 86 0 193c0 86 55 159 133 184 12 4 22 6 28 7 3 1 5-3 3-6-4-7-10-17-13-24-11-24-18-50-18-78 0-49 19-95 53-129s79-53 127-53h8z"/><glyph glyph-name="ion-ios-more" unicode="" horiz-adv-x="384" d="M192 230c21 0 38-17 38-38s-17-38-38-38-38 17-38 38 17 38 38 38zm-154 0c21 0 38-17 38-38s-17-38-38-38-38 17-38 38 17 38 38 38zm308 0c21 0 38-17 38-38s-17-38-38-38-38 17-38 38 17 38 38 38z"/><glyph glyph-name="ion-ios-move" unicode="" horiz-adv-x="448" d="M444 202c6-5 6-15 0-20l-79-79c-5-5-15-5-20 0s-5 15 0 20l55 55H238l1-162 55 55c5 5 14 5 19 0s5-15 0-20l-79-79c-5-5-15-5-20 0l-79 79c-5 5-5 15 0 20s15 5 20 0l55-55v162H48l55-55c5-5 5-15 0-20s-15-5-20 0L4 182c-5 5-5 15 0 20l79 79c5 5 15 5 20 0s5-15 0-20l-55-55h162v162l-55-55c-5-5-15-5-20 0s-5 15 0 20l79 79c5 5 15 5 20 0l79-79c5-5 5-15 0-20s-14-5-19 0l-55 55-1-162h162l-55 55c-5 5-5 15 0 20s15 5 20 0z"/><glyph glyph-name="ion-ios-musical-note" unicode="" horiz-adv-x="236" d="M226 400c6 1 10-4 10-8v-75c0-8-6-13-13-15l-93-19c-4-1-6-4-6-8V45c0-26-13-41-24-48-15-10-43-13-51-13-3 0-9 0-14 1C22-12 0 2 0 32c0 37 40 47 64 52 5 1 11 2 14 3 8 2 13 7 16 13 2 4 2 10 2 12v255c0 4 4 7 8 8s117 24 122 25z"/><glyph glyph-name="ion-ios-musical-notes" unicode="" horiz-adv-x="320" d="M310 400c6 1 10-4 10-8V90c0-21-9-38-27-48-13-8-29-12-37-13s-13-1-19-1c-16 1-42 14-42 48 0 37 40 47 64 52 5 1 11 2 14 3 8 2 14 7 17 13 2 4 2 9 2 13v131c0 5-5 9-10 8l-152-31c-4-1-6-3-6-7V45c0-26-13-41-24-48-15-10-44-13-51-13-3 0-5 1-7 1C23-13 0 1 0 32c0 37 40 47 64 52 5 1 11 2 14 3 8 2 13 7 16 13 2 4 2 10 2 12v240c0 4 4 7 8 8s201 39 206 40z"/><glyph glyph-name="ion-ios-navigate" unicode="" d="M208 400c115 0 208-93 208-208S323-16 208-16 0 77 0 192s93 208 208 208zm0-336l96 224-224-96h128V64z"/><glyph glyph-name="ion-ios-notifications-off" unicode="" horiz-adv-x="320" d="M160-8c-31 0-48 22-48 53h96c0-31-17-53-48-53zM59 393L286 5c4-7 2-15-5-19-2-1-5-2-7-2-5 0-9 3-12 7L34 379c-4 7-2 15 5 19 2 1 5 2 7 2h1c5 0 10-3 12-7zM200 64H20C4 64-6 83 4 96c15 20 46 32 46 123 0 33 5 59 13 79zm116 32c10-13 0-32-16-32h-30L104 348c8 5 17 9 26 11 4 1 6 2 6 6v3c0 13 11 24 24 24s25-11 25-24v-3c0-4 2-5 6-6 38-9 79-47 79-140 0-91 31-103 46-123z"/><glyph glyph-name="ion-ios-notifications-outline" unicode="" horiz-adv-x="320" d="M193 45c8 0 15-8 13-16-5-22-20-37-46-37s-42 15-47 37c-2 8 5 16 13 16 6 0 11-4 12-10 1-4 3-8 5-11 1-1 6-6 17-6s15 4 16 6c2 3 4 7 5 11 1 6 6 10 12 10zm123 51c10-13 0-32-16-32H20C4 64-6 83 4 96c15 20 46 32 46 123 0 93 41 131 79 140 4 1 7 2 7 6v3c0 13 11 24 24 24s24-11 24-24v-3c0-4 2-5 6-6 38-9 80-47 80-140 0-91 31-103 46-123zm-39-6c4 0 5 4 3 7-7 8-16 19-22 34-10 23-14 51-14 88s-7 67-21 87c-12 18-28 25-39 27-7 2-13 5-18 11-3 4-9 4-12 0-4-5-11-9-19-11-11-2-27-9-39-27-14-20-21-50-21-87s-4-65-14-88c-6-15-14-26-21-34-2-3-1-7 3-7h234z"/><glyph glyph-name="ion-ios-notifications" unicode="" horiz-adv-x="320" d="M160-8c-31 0-48 22-48 53h96c0-31-17-53-48-53zM316 96c10-13 0-32-16-32H20C4 64-6 83 4 96c15 20 46 32 46 123 0 93 41 131 79 140 4 1 7 2 7 6v3c0 13 11 24 24 24s24-11 24-24v-3c0-4 3-5 7-6 38-9 79-47 79-140 0-91 31-103 46-123z"/><glyph glyph-name="ion-ios-nuclear" unicode="" d="M208 400c115 0 208-93 208-208S323-16 208-16 0 77 0 192s93 208 208 208zM120 35c27-15 56-23 88-23s62 8 89 23l-50 86c-1 2 0 4 2 5 20 13 34 36 35 61 0 2 2 3 4 3h100v2c0 48-19 93-53 127-11 11-23 20-36 28l-51-87c-1-2-3-3-5-2-10 5-23 8-35 8-13 0-25-2-36-8-2-1-4-1-5 1l-51 88c-13-8-24-17-35-28-34-34-53-79-53-127v-2h100c2 0 4-1 4-3 1-25 15-48 35-61 2-1 3-3 2-5zm32 157c0 31 25 56 56 56s56-25 56-56-25-56-56-56-56 25-56 56z"/><glyph glyph-name="ion-ios-nutrition" unicode="" horiz-adv-x="384" d="M295 216c6-6 9-14 9-23 0-11-5-20-13-26s-44-33-97-72c-3-2-7-2-10 0l-37 26c-4 3-8 3-10 1s-2-6 1-10l21-32c2-4 1-9-2-11L52-8c-6-4-12-8-20-8C14-16 0-2 0 16c0 7 2 13 5 18 1 2 11 18 29 46 2 4 6 5 10 3l17-8c4-3 8-3 10-1s2 6-1 10l-14 24c-2 3-2 6 0 8 24 39 49 79 71 114 2 4 7 4 11 2l32-20c4-3 8-3 10-1s2 6-1 10l-27 41c-2 3-2 5 0 8l12 20c6 10 16 16 28 16 9 0 18-4 24-10l79-79v-1zm88 101c2-4 1-9-3-11l-92-47-28 29 57 108c2 4 7 5 11 3l18-8c4-2 5-7 3-11l-48-79 60 37c4 2 9 1 11-3z"/><glyph glyph-name="ion-ios-open" unicode="" d="M180 148c5-5 13-5 18 0l134 134c3-5 4-12 4-18V40c0-22-18-40-40-40H40C18 0 0 18 0 40v224c0 22 18 40 40 40h256c6 0 13-1 18-4L180 166c-5-5-5-13 0-18zm232 232c2-2 4-6 4-10v-98c0-7-6-13-13-13s-13 6-13 13v67l-58-57c-4 8-10 14-18 18l57 58h-67c-7 0-13 6-13 13s6 13 13 13h97c4 0 9-2 11-4z"/><glyph glyph-name="ion-ios-options" unicode="" d="M251 72c6 14 21 24 37 24s31-10 37-24h75c9 0 16-7 16-16s-7-16-16-16h-75c-6-14-21-24-37-24s-31 10-37 24H16C7 40 0 47 0 56s7 16 16 16h235zM91 208c6 14 21 24 37 24s31-10 37-24h235c9 0 16-7 16-16s-7-16-16-16H165c-6-14-21-24-37-24s-31 10-37 24H16c-9 0-16 7-16 16s7 16 16 16h75zm160 136c6 14 21 24 37 24s31-10 37-24h75c9 0 16-7 16-16s-7-16-16-16h-75c-6-14-21-24-37-24s-31 10-37 24H16c-9 0-16 7-16 16s7 16 16 16h235z"/><glyph glyph-name="ion-ios-outlet" unicode="" d="M311 370c3 0 6 0 8-2 58-37 97-102 97-176S377 54 319 16c-2-2-5-2-8-2H105c-3 0-6 0-8 2C39 54 0 118 0 192s39 139 97 176c2 2 5 2 8 2h206zM145 177c2 0 4 2 4 4v111c0 2-2 4-4 4h-22c-2 0-4-2-4-4V181c0-2 2-4 4-4h22zm89-119c2 0 4 2 4 4v41c0 16-14 30-30 30s-30-15-30-31V62c0-2 2-4 4-4h52zm59 134c2 0 4 2 4 4v81c0 2-2 4-4 4h-22c-2 0-4-2-4-4v-81c0-2 2-4 4-4h22z"/><glyph glyph-name="ion-ios-paper-plane" unicode="" d="M404 399c6 3 14-2 12-9L334-10c-1-6-7-8-12-4l-99 72c-4 3-9 2-12-2l-38-45c-4-6-10-4-11 3l11 78c1 7 3 12 7 18l179 219c2 3 0 6-3 7-2 0-3 0-4-1L144 132c-4-5-7-11-7-18l8-91c0-5-9-3-10 2L82 134c-2 4-5 6-9 8L5 168c-6 3-7 12-1 15z"/><glyph glyph-name="ion-ios-paper" unicode="" d="M76 368c0 18 12 30 30 30l278 2c18 0 32-14 32-32V15c0-17-14-31-31-31H32C14-16 0-2 0 16v288c0 18 14 32 32 32h16V46c0-8 6-14 14-14s14 6 14 14v322zm66-32c-8 0-14-6-14-14s6-14 14-14h84c8 0 14 6 14 14s-6 14-14 14h-84zm0-160c-8 0-14-6-14-14s6-14 14-14h148c8 0 14 6 14 14s-6 14-14 14H142zM338 68c8 0 14 6 14 14s-6 14-14 14H142c-8 0-14-6-14-14s6-14 14-14h196zm0 160c8 0 14 6 14 14s-6 14-14 14H142c-8 0-14-6-14-14s6-14 14-14h196z"/></font>
</defs>
</svg>
